Watch DDT Wrestle Peter Pan 2020 06 07 Day 2

DDT Wrestle Peter Pan 2020 06 07 Day 2 LATE DX-TV

 

Watch

 DDT Wrestle
 

 

Watch DDT Wrestle Peter Pan 2020 06 07 Day 2

 

 

 

Complete name : DDT.2020.06.07.Wrestle.Peter.Pan.2020.Day.2.JAPANESE.WEB.h264-LATE.mkv
Format : Matroska
Format version : Watch
File size : 3.05 GiB
Duration : 3 h 49 min
Overall bit rate : 1 906 kb/s

Video
ID : 1
Format : AVC
Format/Info : Watch
Format settings, : 4 frames
Codec ID : V_MPEG4/ISO/AVC
Duration : 3 h 49 min
Bit rate : 1 808 kb/s
Width : 960 pixels
Height : 540 pixels
Display aspect ratio : 16:9
Frame rate mode : Watch
Frame rate : 30.000 FPS
Color space : YUV
Chroma subsampling : 4:2:0
Bit depth : 8 bits
Scan type : Progressive
Bits/(Pixel*Frame) : 0.116
Stream size : 2.89 GiB (95%)
Default : Yes
Forced : No
Color range : Limited
Color primaries : BT.601 PAL
Transfer characteristics : BT.601
Matrix coefficients : Watch

Audio
ID : 2
Format : AAC LC
Format/Info : Watch
Codec ID : A_AAC-2
Duration : 3 h 49 min
Bit rate : 96.0 kb/s
Channel(s) : 2 channels
Channel layout : L R
Sampling rate : 44.1 kHz
Frame rate : 43.066 FPS (1024 SPF)
Compression mode : Lossy
Delay relative to video : -166 ms
Stream size : 157 MiB (5%)
Language : English
Default : Watch
Forced : No

 

 

 

 

Watch DDT Wrestle Peter Pan 2020 06 07 Day 2

 

 

 

Watch online

 

 

Server 1

 

 

 

 

watch now

 

 

 

 

Server 2

 

 

 

watch now

 

 

 

Uploaded By Site DX-TV.com

 

 

 

Download with premium account LinksĀ 

 

 

Keep2Share

 

 

nitroflare.com

 

 

rapidgator.net

 

 

uploadgig.com

 

 

 

dx-tv.com

 

urlfree.net

Leave a Reply

Your email address will not be published. Required fields are marked *

This site uses Akismet to reduce spam. Learn how your comment data is processed.