Watch DDT Ultimate Party 2019 11 03 Japan

Watch DDT Ultimate Party 2019 11 03 Japan DX-TV

 

 

DDT Ultimate Party 2019

 

 

 

 

dx-tv.com

 

 

 

 

Watch DDT Ultimate Party 2019 11 03

 

 

 

 

 

Complete name :DDT.2019.11.03.Ultimate.Party.2019.JAPAN.mp4
Format : MPEG-4
Format profile : Base Media / Version 2
Codec ID : mp42 (mp42)
File size : 3.96 GiB
Duration : 6 h 29 min
Overall bit rate : 1 459 kb/s

Video
ID : 1
Format : AVC
Format/Info : Advanced Video Codec
Codec ID/Info : Advanced Video Coding
Duration : 6 h 29 min
Bit rate : 1 324 kb/s
Width : 960 pixels
Height : 540 pixels
Display aspect ratio : 16:9
Frame rate mode : Constant
Frame rate : 30.000 FPS
Color space : YUV
Chroma subsampling : 4:2:0
Bit depth : 8 bits
Scan type : Progressive
Bits/(Pixel*Frame) : 0.085
Stream size : 3.60 GiB (91%)
Language : English
Codec configuration box : avcC

Audio
ID : 2
Format : AAC LC
Format/Info : Advanced Audio Codec Low Complexity
Codec ID : mp4a-40-2
Duration : 6 h 29 min
Bit rate mode : Constant
Bit rate : 128 kb/s
Channel(s) : 2 channels
Channel layout : L R
Sampling rate : 44.1 kHz
Frame rate : 43.066 FPS (1024 SPF)
Compression mode : Lossy
Stream size : 355 MiB (9%)
Title : Stereo
Language : English
Default : Yes

 

 

 

 

 

 

Watch online

 

 

Waiting finish converting video

 

 

Server 1

 

 

 

 

 

 

 

watch now

 

 

 

 

 

 

Server 2

 

 

 

 

 

 

 

watch now

 

 

 

 

 

 

 

 

Uploaded By Site DX-TV.com

 

 

 

 

 

 

 

 

 

 

 

Recommended For Free

 

 

 

 

earn4files.com

 

 

clicknupload.org

 

 

 

 

 

Download with high speed with Premium account

 

 

 

 

nitroflare.com

 

 

 

rapidgator.net

 

 

 

uploaded.net

 

 

 

uploadgig.com

 

 

 

 

 

 

Leave a Reply

Your email address will not be published. Required fields are marked *

eleven + 5 =