Watch DDT 2020 05 09 DDT TV Show 2

DDT 2020 05 09 DDT TV Show 2 DX-TV

Watch

 DDT

 

 

Watch DDT 2020 05 09 DDT TV Show 2

 

 

 

Complete name : DDT.2020.05.09.DDT.TV.Show.2.JAPANESE.WEB.h264-LATE.mkv
Format : Matroska
Format version : Watch
File size : 1.82 GiB
Duration : 2 h 16 min
Overall bit rate : 1 908 kb/s

Video
ID : 1
Format : AVC
Duration : 2 h 16 min
Bit rate : 1 809 kb/s
Width : 960 pixels
Height : 540 pixels
aspect ratio : 16:9
Frame rate mode : Watch
Frame rate : 30.000 FPS
Color space : YUV
Chroma subsampling : 4:2:0
Bit depth : 8 bits
Scan type : Watch
Bits/(Pixel*Frame) : 0.116
Stream size : 1.72 GiB (95%)
Default : Yes
Forced : No
Color range : Limited
Color primaries : BT.601 PAL
Transfer : BT.601
Matrix : Watch

Audio
ID : 2
Format : AAC LC
Format/Info : Watch
Codec ID : A_AAC-2
Duration : 2 h 16 min
Bit rate : 96.0 kb/s
Channel(s) : 2 channels
Channel layout : L R
Sampling rate : 44.1 kHz
Frame rate : 43.066 FPS (1024 SPF)
Compression mode : Watch
Delay relative to video : -166 ms
Stream size : 93.6 MiB (5%)
Language : English
Default : Yes
Forced : Watch

 

 

 

Watch online

 

 

Server 1

 

 

 

 

watch now

 

 

 

 

Server 2

 

 

 

watch now

 

 

 

Watch DDT 2020 05 09 DDT TV Show 2

 

 

Uploaded By Site DX-TV.com

 

 

Download with Free Links 

 

 

1fichier.com

 

 

rockfile.co

 

 

 

Download with premium account Links 

 

 

nitroflare.com

 

 

rapidgator.net

 

 

uploadgig.com

 

 

 

dx-tv.com

 

urlfree.net

 128 total views,  3 views today

Leave a Reply

Your email address will not be published. Required fields are marked *

This site uses Akismet to reduce spam. Learn how your comment data is processed.

%d bloggers like this: