Watch DDT 2020 05 02 DDT TV Show 1

DDT 2020 05 02 DDT TV Show 1 DX-TV

DDT

 DDT

 

 

Watch DDT 2020 05 02 DDT TV Show 1

 

 

 

Complete name : DDT.2020.05.02.DDT.TV.Show.1.JAPANESE.WEB.h264-LATE.mkv
Format : Matroska
Format version : DDT
File size : 1.79 GiB
Duration : 2 h 14 min
Overall bit rate : 1 914 kb/s

Video
ID : 1
Format : AVC
Codec ID : DDT
Duration : 2 h 14 min
Bit rate : 1 816 kb/s
Width : 960 pixels
Height : 540 pixels
aspect ratio : 16:9
Frame rate mode : DDT
Frame rate : 30.000 FPS
Color space : YUV
Chroma subsampling : 4:2:0
Bit depth : 8 bits
Scan type : Progressive
Bits/(Pixel*Frame) : 0.117
Stream size : 1.70 GiB (95%)
Default : Yes
Forced : No
Color range : DDT
Color primaries : BT.601 PAL
Transfer characteristics : BT.601

Audio
ID : 2
Format : AAC LC
Format/Info : DDT
Codec ID : A_AAC-2
Duration : 2 h 14 min
Bit rate : 96.0 kb/s
Channel(s) : 2 channels
Channel layout : DDT
Sampling rate : 44.1 kHz
Frame rate : 43.066 FPS (1024 SPF)
Compression mode : Lossy
Delay relative to video : -166 ms
Stream size : 92.1 MiB (5%)
Language : English
Default : Yes
Forced : DDT

 

 

 

Watch online

 

 

Server 1

 

 

 

 

watch now

 

 

 

 

Server 2

 

 

 

watch now

 

 

 

Watch DDT 2020 05 02 DDT TV Show 1

 

 

Uploaded By Site DX-TV.com

 

 

Download with Free Links 

 

 

1fichier.com

 

 

rockfile.co

 

 

 

Download with premium account Links 

 

 

Keep2Share

 

 

nitroflare.com

 

 

rapidgator.net

 

 

uploadgig.com

 

 

 

dx-tv.com

 

urlfree.net

 126 total views,  2 views today

Leave a Reply

Your email address will not be published. Required fields are marked *

This site uses Akismet to reduce spam. Learn how your comment data is processed.

%d bloggers like this: