Watch DDT 2019 05 06 King of DDT 2nd Round WEB LATE free full show online

 

 

 

 


 

 

 

dx-tv.com

 

 

 

 

 
Complete name : DDT.2019.05.06.King.of.DDT.2019.2nd.Round.JAPANESE.WEB.h264-LATE.mkv
Format : Matroska
Format version : Version 4
File size : 1.91 GiB
Duration : 2 h 27 min
Overall bit rate : 1 847 kb/s

Video
ID : 1
Format : AVC
Format/Info : Advanced Video Codec
Format settings, Reference : 4 frames
Codec ID : V_MPEG4/ISO/AVC
Duration : 2 h 27 min
Bit rate : 1 748 kb/s
Width : 960 pixels
Height : 540 pixels
Display aspect ratio : 16:9
Frame rate mode : Constant
Frame rate : 30.000 FPS
Color space : YUV
Chroma subsampling : 4:2:0
Bit depth : 8 bits
Scan type : Progressive
Bits/(Pixel*Frame) : 0.112
Stream size : 1.81 GiB (95%)
Default : Yes
Forced : No
Color range : Limited
Color primaries : BT.601 PAL
Transfer characteristics : BT.601
Matrix coefficients : BT.470 System B/G

Audio
ID : 2
Format : AAC LC
Format/Info : Advanced Audio Codec Low Complexity
Codec ID : A_AAC-2
Duration : 2 h 27 min
Bit rate : 96.0 kb/s
Channel(s) : 2 channels
Channel layout : L R
Sampling rate : 44.1 kHz
Frame rate : 43.066 FPS (1024 SPF)
Compression mode : Lossy
Delay relative to video : -166 ms
Stream size : 102 MiB (5%)
Language : English
Default : Yes
Forced : No

 

 

 

 

 


 

 

 

Watch DDT 2019 05 06 King of DDT 2nd Round WEB LATE free full show online

 

 

 

 

Watch online

 

 

Waiting finish converting video

 

 

Server 1

 

 

 

 


 

 

 


 

 


 

 

 

Uploaded By Site DX-TV.com

 

 

 

open rar file to see this password

 

 

 

 

The password : DX-TV.com

 

 

 

 

Uploaded.net + rapidgator.net + katfile.com + bitster.cz

 

 

 

 


 

 

 

 

 
https://shrt10.com/or8TyF
 

 
https://shrt10.com/EBWB5
 

 
https://shrt10.com/qjNx
 

 
https://shrt10.com/IW09ai8n
 

 
https://shrt10.com/ewtAuk
 

 

 

 

Watch DDT 2019 05 06 King of DDT 2nd Round WEB LATE free full show online