Watch DDT 2019 04 28 Max Bump 2019 Japanes WEB LATE full show free mp4

 

 

 

 


 

 

dx-tv.com

 

 

 

Complete name : DDT.2019.04.28.Max.Bump.2019.JAPANESE.WEB.h264-LATE.mkv
Format : Matroska
Format version : Version 4
File size : 2.70 GiB
Duration : 3 h 28 min
Overall bit rate : 1 860 kb/s
Encoded date : UTC 2019-04-28 08:42:32
Writing library : libebml v1.3.7 + libmatroska v1.5.0

Video
ID : 1
Format : AVC
Format/Info : Advanced Video Codec
Format settings, Reference : 4 frames
Codec ID : V_MPEG4/ISO/AVC
Duration : 3 h 28 min
Bit rate : 1 761 kb/s
Width : 960 pixels
Height : 540 pixels
Display aspect ratio : 16:9
Frame rate mode : Constant
Frame rate : 30.000 FPS
Color space : YUV
Chroma subsampling : 4:2:0
Bit depth : 8 bits
Scan type : Progressive
Bits/(Pixel*Frame) : 0.113
Stream size : 2.56 GiB (95%)
Default : Yes
Forced : No
Color range : Limited
Color primaries : BT.601 PAL
Transfer characteristics : BT.601
Matrix coefficients : BT.470 System B/G

Audio
ID : 2
Format : AAC LC
Format/Info : Advanced Audio Codec Low Complexity
Codec ID : A_AAC-2
Duration : 3 h 28 min
Bit rate : 96.0 kb/s
Channel(s) : 2 channels
Channel layout : L R
Sampling rate : 44.1 kHz
Frame rate : 43.066 FPS (1024 SPF)
Compression mode : Lossy
Delay relative to video : -166 ms
Stream size : 143 MiB (5%)
Language : English
Default : Yes
Forced : No

 

 

 

 

 

 

 

 

 


 

Watch DDT 2019 04 28 Max Bump 2019 Japanes WEB LATE full show free mp4

 

 

 

 

Watch online

 

 

Waiting finish converting video

 

 

Server 1

 

 

 

 

 


 

 



 

Uploaded By Site DX-TV.com

 

 

 

open rar file to see this password

 

 

 

 

The password : DX-TV.com

 

 

 

 

Uploaded.net + rapidgator.net + DDL.to + katfile.com

 

 

 

 


 

 
https://shrt10.com/7U2aauTU

 

 

 
https://shrt10.com/CHLYzlaD
 

 

 

 

Watch DDT 2019 04 28 Max Bump 2019 Japanes WEB LATE full show free mp4