Watch DAZN Canelo vs Smith 12-19-2020 1080i DX-TV

Watch DAZN Canelo vs Smith 12-19-2020 720p / 1080i 45GB DX-TV

Watch DAZN Canelo vs Smith

 Watch Canelo vs Smith Free Live Online

 

Download Links with premium High Speed   

 

dropapk.to

http://shrt10.com/PmSrYZ3W       720p

 

 

nitroflare.com

http://shrt10.com/kteQdqeY

 

 

rapidgator.net

 

http://shrt10.com/dUkYma817              1080i  1 Link 45GB

http://shrt10.com/7aDDq8Ah                720p      5GB

 

 

uploadgig.com

http://shrt10.com/bLteeis   720p

 

 

 

 

 

Watch online

 

Server 1

 

 

 

 

Watch DAZN Canelo vs Smith

 

 

 

 

Uploaded By Site DX-TV.com

 

 

 

[su_expand more_text=”Show More Info” less_text=”Close all Info” height=”50″ text_color=”#000000″ link_color=”#e25f8b” link_style=”button” more_icon=”icon: arrow-down” less_icon=”icon: arrow-up”]
Complete name : DAZN Presents Alvarez vs C Smith Fight Night Replay 12-19-2020 HDTV MP4 AAC.mp4
Format : MPEG-4
Codec ID : M4V
File size : 45.9 GiB
Duration : 4 h 53 min
Overall bit rate : 22.4 Mb/s
Cover : Yes

 DAZN Canelo vs Smith

Video
ID : 1
Format : AVC
Duration : 4 h 53 min
Bit rate : 22.1 Mb/s
Width : 1 920 pixels
Height : 1 080 pixels
Display aspect ratio : 16:9
Frame rate mode : Constant
Original frame rate : 59.940 FPS
Color space : YUV
Chroma subsampling : 4:2:0
Bit depth : 8 bits
Scan type : Progressive
Bits/(Pixel*Frame) : 0.178
Stream size : 45.2 GiB (98%)
Language : English
Color range : Limited
Color primaries : BT.709
Transfer characteristics : BT.709
Matrix coefficients : BT.709
mdhd_Duration : 17583984
Codec configuration box : avc

Watch DAZN Canelo vs Smith

Audio
ID : 2
Format : AAC LC
Format/Info : Advanced Audio Codec
Codec ID : mp4a-40-2
Duration : 4 h 53 min
Bit rate mode : Constant
Bit rate : 320 kb/s
Channel(s) : 2 channels
Channel layout : L R
Sampling rate : 48.0 kHz
Frame rate : 46.875 FPS (1024 SPF)
Compression mode : Lossy
Stream size : 665 MiB (1%)
Language : English
mdhd_Duration : 17583978

Complete name : DAZN Presents Alvarez vs Smith Fight Night Replay 12-19-2020 HDTV 720p MKV AAC.mkv
Format : Matroska
Format version : Version 4
File size : 5.07 GiB
Duration : 4 h 53 min
Overall bit rate : 2 477 kb/s

 DAZN Canelo vs Smith

Video
ID : 1
Format : AVC
Duration : 4 h 53 min
Width : 1 280 pixels
Height : 720 pixels
Display aspect ratio : 16:9
Frame rate mode : Constant
Frame rate : 59.940 FPS
Color space : YUV
Chroma subsampling : 4:2:0
Bit depth : 8 bits
Scan type : Progressive
Forced : No
Color range : Limited
Color primaries : BT.709
Transfer characteristics : BT.709
Matrix coefficients : BT.709

Audio
ID : 2
Format : AAC LC
Format/Info : Advanced Audio
Codec ID : A_AAC-2
Duration : 4 h 53 min
Channel(s) : 2 channels
Channel layout : L R
Sampling rate : 48.0 kHz
Frame rate : 46.875 FPS (1024 SPF)
Compression mode : Lossy
Delay relative to video : -21 ms
Title : Stereo
Language : English
Default : Yes
Forced : No

Watch DAZN Canelo vs Smith

[/su_expand]

 

https://dx-tv.com/

Leave a Reply

Your email address will not be published. Required fields are marked *

This site uses Akismet to reduce spam. Learn how your comment data is processed.