Watch Day 16 G1 Climax 30 2020 NJPW Full Show Online

Day 16 G1 Climax 30 2020 NJPW Full Show Online DX-TV

 

Day 16 G1 Climax 30

 

 G1 Climax 30 Day 16

 

G1 Climax 30 Day 16 2020 NJPW Full Show Online

 30

Toru Yano (3-4) vs Tetsuya Naito (5-2)

Singles record: 6-3 Naito G1 record 5-3 Naito

Naito heads the block, but has been pinned by EVIL. 

Yano must best Naito and have Goto beat EVIL to have any chance

Day 16 G1 Climax 30

Toru Yano’s G1 started in mighty form with three successive wins, but fell off a precipitous cliff from match four onward.

Now with a negative record for the first time in his campaign, his chances of the final are painfully slim, and can only remain alive with a victory over Tetsuya Naito. 

Not like that’s impossible; the two men have met a remarkable eight times in the G1, and Yano has picked up three victories of those eight, and has an even record against the double IWGP Champion in Yokohama, a town where Yano is, on the whole, very successful. He is 6-4 in Yokohama, with wins in the last two years in the city spoiling chances for Taichi and Kenny Omega. 

Day 16 G1 Climax 30

Could Yano keep his hopes alive by beating Naito then? If he did, and EVIL were to lose to Goto tonight, things will be looking up for the master producer, with key tiebreakers in his pocket to boot. He’ll be pulling every trick out of his pocket, and every roll of tape out of his tights, to make sure that happens. 

Day 16 G1 Climax 30

Complete name : NJPW.10.14.2020.G1.Climax.30.Day.16.JAPANESE.WEB.h264-DaShield.mp4
Format : MPEG-4
Format profile : Base Media
Codec ID : isom
File size : 2.17 GiB
Duration : 2 h 36 min
Overall bit rate mode : Variable
Overall bit rate : 1 987 kb/s
Writing application : Lavf53.24.2

Day 16 G1 Climax 30

Video
ID : 1
Format : AVC
Duration : 2 h 36 min
Bit rate : 1 876 kb/s
Width : 960 pixels
Height : 540 pixels
Display aspect ratio : 16:9
Frame rate mode : Variable
Frame rate : 30.000 FPS 
Color space : YUV
Chroma subsampling : 4:2:0
Bit depth : 8 bits
Scan type : Progressive
Bits/(Pixel*Frame) : 0.121
Stream size : 2.04 GiB (94%)
Color range : Limited
Color primaries : BT.601 PAL
Transfer characteristics : BT.601
Matrix coefficients : BT.470 System B/G
Codec configuration box : avcC

Day 16 G1 Climax 30

Audio
ID : 2
Format : AAC LC
Format/Info : Advanced Audio
Codec ID : mp4a-40-2
Duration : 2 h 36 min
Bit rate mode : Variable
Bit rate : 99.7 kb/s
Maximum bit rate : 110 kb/s
Channel(s) : 2 channels
Channel layout : L R
Sampling rate : 44.1 kHz
Frame rate : 43.066 FPS
Compression mode : Lossy
Stream size : 111 MiB (5%)
Default : Yes
Alternate group : 1

 

 

 

G1 Climax 30 Day 16 2020 NJPW Full Show Online

 

 

 

Watch online

 

 

 

Server 1

 

 

 

 

watch now

 

 

 

 

Server-2

 

 

 

watch now

 

 

Watch Day 16 G1

 

Server-3

 

 

 

Day 16 G1 Climax 30

 

 

 

 

Uploaded By Site DX-TV.com

 

 

 

 

Download Free Links with normal and high Speed [ more 14 hosts ]  

 

 

 

 

http://shrt10.com/NBiq7R9n
http://shrt10.com/enzDFNN
http://shrt10.com/Ke00A
http://shrt10.com/prBe97qyr
http://shrt10.com/5zgEmyT
http://shrt10.com/LWmPZDL8
http://shrt10.com/CQcwqY
http://shrt10.com/xClRGm
http://shrt10.com/CEBS6lK

 

 

 

Download Links with premium High Speed   

 

 

 

 

dropapk.to

 

 

 

nitroflare.com

 

 

 

rapidgator.net

 

 

 

uploaded.net

 

 

 

uploadgig.com

 

 

 

 

 

dx-tv.com

 

urlfree.net

Leave a Reply

Your email address will not be published. Required fields are marked *

This site uses Akismet to reduce spam. Learn how your comment data is processed.