Watch Dark Side of the Ring S01E05 720p timster free full show online

Watch Dark Side of the Ring S01E05 720p timster free full show online

 

 

 

 


 

 

dx-tv.com

 

 

 

 

 

Complete name : Dark.Side.of.the.Ring.S01E05.The.Mysterious.Death.Of.Gorgeous.Gino.720p.WEB-timster.mp4
Format : MPEG-4
Format profile : Base Media / Version 2
Codec ID : mp42 (mp42)
File size : 1.20 GiB
Duration : 41 min 54 s
Overall bit rate : 4 114 kb/s
Codirector : codirector
Production studio : studio
ContentType : Unknown Type

Video
ID : 1
Format : AVC
Format/Info : Advanced Video Codec
Codec ID : avc1
Codec ID/Info : Advanced Video Coding
Duration : 41 min 54 s
Bit rate : 4 000 kb/s
Width : 1 280 pixels
Height : 720 pixels
Display aspect ratio : 16:9
Frame rate mode : Constant
Frame rate : 30.000 FPS
Color space : YUV
Chroma subsampling : 4:2:0
Bit depth : 8 bits
Scan type : Progressive
Bits/(Pixel*Frame) : 0.145
Stream size : 1.17 GiB (97%)
Language : English
Codec configuration box : avcC

Audio
ID : 2
Format : AAC LC
Format/Info : Advanced Audio Codec Low Complexity
Codec ID : mp4a-40-2
Duration : 41 min 54 s
Bit rate mode : Constant
Bit rate : 108 kb/s
Channel(s) : 2 channels
Channel layout : L R
Sampling rate : 44.1 kHz
Frame rate : 43.066 FPS (1024 SPF)
Compression mode : Lossy
Stream size : 32.2 MiB (3%)
Title : Stereo
Language : English
Default : Yes
Alternate group : 1

 

 

 

 

 


 

 

Watch Dark Side of the Ring S01E05 720p timster free full show online

 

 

 

 

Watch online

 

 

Waiting finish converting video

 

 

Server 1

 

 

 

 


 

 

 


 


 

 

Uploaded By Site DX-TV.com

 

 

 

open rar file to see this password

 

 

 

 

The password : DX-TV.com

 

 

 

 

Uploaded.net + rapidgator.net + katfile.com + bitster.cz

 

 

 

 


 

https://shrt10.com/oIRF
 

 
https://shrt10.com/tDWdLm
 

 
https://shrt10.com/A4b2
 

 
https://shrt10.com/pqSt0crR
 

 
https://shrt10.com/Tsqyof99
 

 

 

 

 

 

 

Watch Dark Side of the Ring S01E05 720p timster free full show online

Leave a Reply

Your email address will not be published. Required fields are marked *