Watch Dark Side of the Ring S01E04 The Last of the Von Erichs full show free mp4

 

 

 

 


 

 

 

dx-tv.com

 

 

 

 

 

Complete name : Dark Side of the Ring S01E04 -The Last of the Von Erichs.mp4
Format : MPEG-4
Format profile : Base Media
Codec ID : isom (isom/iso2/avc1/mp41)
File size : 1.12 GiB
Duration : 44 min 4 s
Overall bit rate : 3 627 kb/s
Writing application : Lavf57.56.100

Video
ID : 1
Format : AVC
Format/Info : Advanced Video Codec
Format settings, Reference : 4 frames
Codec ID : avc1
Codec ID/Info : Advanced Video Coding
Duration : 44 min 4 s
Bit rate : 3 500 kb/s
Width : 1 920 pixels
Height : 1 080 pixels
Display aspect ratio : 16:9
Frame rate mode : Variable
Frame rate : 23.976 (24000/1001) FPS
Minimum frame rate : 23.854 FPS
Maximum frame rate : 24.051 FPS
Original frame rate : 24.000 FPS
Color space : YUV
Chroma subsampling : 4:2:0
Bit depth : 8 bits
Scan type : Progressive
Bits/(Pixel*Frame) : 0.070
Stream size : 1.08 GiB (96%)
Codec configuration box : avcC

Audio
ID : 2
Format : AAC LC SBR
Commercial name : HE-AAC
Format settings : Implicit
Codec ID : mp4a-40-2
Duration : 44 min 4 s
Bit rate mode : Constant
Bit rate : 127 kb/s
Channel(s) : 2 channels
Channel layout : L R
Sampling rate : 48.0 kHz
Frame rate : 23.438 FPS (2048 SPF)
Compression mode : Lossy
Stream size : 40.0 MiB (3%)
Default : Yes
Alternate group : 1
 

 

 

 


 

 

 

Watch Dark Side of the Ring S01E04 The Last of the Von Erichs full show free mp4

 

 

 

 

Watch online

 

 

Waiting finish converting video

 

 

Server 1

 

 

 

 

 


 

 

 


 

 


 

 

 

Uploaded By Site DX-TV.com

 

 

 

open rar file to see this password

 

 

 

 

The password : DX-TV.com

 

 

 

 

Uploaded.net + rapidgator.net + katfile.com

 

 

 

 


 

 

https://shrt10.com/ILMO
 

 

 
https://shrt10.com/RS2kR
 

 

 
https://shrt10.com/sgFd0CRe
 

 

 
https://shrt10.com/h9uAHBB

 

 

 

 

 

Watch Dark Side of the Ring S01E04 The Last of the Von Erichs full show free mp4