Watch CZW Night of Infamy 11/30/2019 720p DX-TV

Watch Online CZW Night of Infamy 11/30/2019 720p DX-TV

 

 

 CZW Night of Infamy

 

 

 

 

dx-tv.com

 

 

 

 

Watch CZW Night of Infamy 11/30/2019 720p DX-TV

 

 

 

 

 

Complete name : CZW Night of Infamy 11-30-2019 720p WEB x264 DX-TV.mp4
Format : MPEG-4
Format profile : Base Media
Codec ID : mp42 (mp42)
File size : 3.96 GiB
Duration : 2 h 58 min
Overall bit rate : 3 174 kb/s

Video
ID : 1
Format : AVC
Duration : 2 h 58 min
Bit rate : 2 975 kb/s
Width : 1 280 pixels
Height : 720 pixels
Display aspect ratio : 16:9
Frame rate mode : Constant
Frame rate : 30.000 FPS
Color space : YUV
Chroma subsampling : 4:2:0
Bit depth : 8 bits
Scan type : Progressive
Bits/(Pixel*Frame) : 0.108
Stream size : 3.71 GiB (94%)
Language : English
Codec configuration box : avcC

Audio
ID : 2
Format : AAC LC
Codec ID : mp4a-40-2
Duration : 2 h 58 min
Bit rate mode : Constant
Bit rate : 192 kb/s
Channel(s) : 2 channels
Channel layout : L R
Sampling rate : 44.1 kHz
Frame rate : 43.066 FPS (1024 SPF)
Compression mode : Lossy
Stream size : 245 MiB (6%)
Title : Stereo
Language : English
Default : Yes
Alternate group : 1

 

 

 

 

 

 

Watch online

 

 

Waiting finish converting video

 

 

Server 1

 

 

 

 

 

 

 

watch now

 

 

 

 

 

 

Server 2

 

 

 

 

 

watch now

 

 

 

 

 

Server–3

 

 

 

 

watch now

 

 

 

 

 

 

Server 4

 

 

 

 

 

watch now

 

 

 

 

 

Uploaded By Site DX-TV.com

 

 

 

 

 

Watch CZW Night of Infamy 11/30/2019 720p DX-TV

 

 

 

 

Download with high speed Premium account

 

 

 

nitroflare.com

 

 

 

rapidgator.net

 

 

 

uploaded.net

 

 

 

 

 

Recommended For Free

 

 

 

 

1fichier.com

 

 

 

anonfile.com

 

 

 

dl.free.fr

 

 

 

 

 

Categories

Earn money $25 as per 1000

103