Watch CZW 2018 09 08 Down With The Sickness WEB NCMP /720p

Watch CZW 2018 09 08 Down With The Sickness WEB NCMP /720p

 

 

 

 


 

 

 

dx-tv.com

 

 

 

 

 

Complete name : CZW.2018.09.08.Down.With.The.Sickness.WEB.h264-NCMP.mp4
Format : MPEG-4
Format profile : Base Media
File size : 2.13 GiB
Duration : 3 h 10 min
Overall bit rate mode : Variable
Overall bit rate : 1 599 kb/s
Writing application : Lavf55.12.100

Video
ID : 2
Format : AVC
Format/Info : Advanced Video Codec
Codec ID/Info : Advanced Video Coding
Duration : 3 h 10 min
Bit rate : 1 495 kb/s
Width : 854 pixels
Height : 480 pixels
Display aspect ratio : 16:9
Frame rate mode : Constant
Frame rate : 29.970
Color space : YUV
Chroma subsampling : 4:2:0
Bit depth : 8 bits
Scan type : Progressive
Bits/(Pixel*Frame) : 0.122
Stream size : 1.99 GiB (93%)

Audio
ID : 1
Format : AAC
Format/Info : Advanced Audio Codec
Format profile : LC
Codec ID : mp4a-40-2
Duration : 3 h 10 min
Bit rate mode : Variable
Bit rate : 96.0 kb/s
Maximum bit rate : 98.5 kb/s
Channel(s) : 2 channels
Channel positions : Front: L R
Sampling rate : 44.1 kHz
Frame rate : 43.066 FPS
Compression mode : Lossy
Stream size : 129 MiB (6%)
Default : Yes
Alternate group : 1

 

 

 

 

 
CZW: Down With The Sickness (2018 Rough Cut)
Video Duration: 03:10:21

1. CZW Hall of Fame Induction

2. Brandon Kirk vs. Max Caster

3. Anthony Greene vs. Dan O’Hare

4. The Help (The Abominable CPA & Smart Mark Sterling) Interview

5. Conor Claxton vs. Mance Warner

6. CZW Tag-Team Titles: BLKOUT (Ruckus & BLK Jeez) vs. The REP (Nate Carter & Dave McCall) (c)

7. The Office confront Mitch Vallen

8. Shook Crew (Bobby Orlando & Bryce Donovan) vs. Massage Force (VSK & Dorian Graves)

9. Joe Gacy vs. Rickey Shane Page

10. CZW WIRED Title: Jordan Oliver vs. KC Navarro vs. Blackwater vs. Ace Austin (c)

11. Chri$ Ca$h Memorial Ladder Match: CZW World Title Opportunity: Alex Reynolds vs. John Silver
 

 

 

 

 

Watch CZW 2018 09 08 Down With The Sickness WEB NCMP /720p

 

 

 

 

Watch online

 

 

Waiting finish converting video

 

 

Server 1

 

 

 

 

 

 

 

 

 

 

 

 

 

 

 

Server 2

 

 

 

 

 

 

 


 

 

 

 

 

 

Uploaded By Site DX-TV.com

 

 

 

open rar file to see this password

 

 

 

 

The password : DX-TV.com

 

 

 

 

Uploaded.net + rapidgator.net

 

 

 

 

 

 
http://shrt10.com/qpRVI
 

 

 

http://shrt10.com/87OpsKZI
 

 

 

http://shrt10.com/crj0
 

 

 

http://shrt10.com/xZYbD
 

 

 

 

Watch CZW 2018 09 08 Down With The Sickness WEB NCMP /720p

Leave a Reply

This site uses Akismet to reduce spam. Learn how your comment data is processed.

Support HVIPS

Please Disable Ad-Block To View This site. just help us to continue this work