Watch Craig Jones Down Under Leg Attacks 4 Disc 1080p mp4

Watch Craig Jones Down Under Leg Attacks 4 Disc 1080p mp4

 

 

 

 

 

 

wwe

 

 

 

 

 

 

 

 

Complete name : Craig Jones – Down Under Leg Attacks – Disc 1.mp4
Codec ID : mp42
File size : 1.04 GiB
Duration : 39mn 48s
Overall bit rate : 3 747 Kbps

 

Duration : 39mn 48s
Bit rate mode : Variable
Bit rate : 3 486 Kbps
Width : 1 920 pixels
Height : 1 080 pixels
Display aspect ratio : 16:9
Frame rate : 29.970 fps
Color space : YUV

 

Duration : 39mn 48s
Bit rate : 256 Kbps
Channel(s) : 2 channels
Sampling rate : 48.0 KHz

 

 

 

Complete name : Craig Jones – Down Under Leg Attacks – Disc 2.mp4
Codec ID : mp42
File size : 1 001 MiB
Duration : 34mn 8s
Overall bit rate : 4 100 Kbps

 

Duration : 34mn 8s
Bit rate mode : Variable
Bit rate : 3 840 Kbps
Width : 1 920 pixels
Height : 1 080 pixels
Display aspect ratio : 16:9
Frame rate mode : Constant
Frame rate : 29.970 fps
Color space : YUV
Chroma subsampling : 4:2:0
Bit depth : 8 bits
Scan type : Progressive
Bits/(Pixel*Frame) : 0.062
Stream size : 937 MiB (94%)

 

Duration : 34mn 8s
Bit rate mode : Variable
Bit rate : 256 Kbps
Channel(s) : 2 channels
Channel positions : Front: L R
Sampling rate : 48.0 KHz
Compression mode : Lossy
Stream size : 62.5 MiB (6%)

 

 

 

 

 

 

 

Watch Craig Jones Down Under Leg Attacks 4 Disc 1080p mp4

 

 

 

 

Watch online

 

 

Waiting finish converting video

 

 

Server 1

 

 

 

 

 

 

 

 

 

 

 

 

 

 

 

 

 

 

 

 

 

 

 

 

 

 

 

 

 

Server 2

 

 

 

 

 

 

 

 

 


 


 

 

 

 

 

 

 

 

 

 

 

 

 

 

 

 

Uploaded By Site DX-TV.com

 

 

 

open rar file to see this password

 

 

 

 

The password is : DX-TV.com

 

 

 

 

1080p

 

 

 

 

 

rapidgator.net

 

 

 

 

 

 

 

 

 

 

http://shrt10.com/T4R4J9

 

 

 

http://shrt10.com/lkXfoHD

 

 

 

 

 

 

 

 

 

 

 

Watch Craig Jones Down Under Leg Attacks 4 Disc 1080p mp4

One thought on “Watch Craig Jones Down Under Leg Attacks 4 Disc 1080p mp4

Comments are closed.

%d bloggers like this: