Watch Cage Warriors 104 720p WEB DL full show free mp4

 

 

 

 

 

dx-tv.com

 

 

Complete name : Cage.Warriors.104.720p.WEB-DL.mp4
Format : MPEG-4
Format profile : Base Media
Codec ID : isom (isom/iso2/avc1/mp41)
File size : 5.12 GiB
Duration : 2 h 47 min
Overall bit rate : 4 389 kb/s
Writing application : Lavf58.12.100

Video
ID : 1
Format : AVC
Format/Info : Advanced Video Codec
Format settings, Reference : 3 frames
Codec ID : avc1
Codec ID/Info : Advanced Video Coding
Duration : 2 h 47 min
Bit rate : 4 248 kb/s
Width : 1 280 pixels
Height : 720 pixels
Display aspect ratio : 16:9
Frame rate mode : Constant
Frame rate : 29.970 (30000/1001) FPS
Original frame rate : 29.970 (29970/1000) FPS
Color space : YUV
Chroma subsampling : 4:2:0
Bit depth : 8 bits
Scan type : Progressive
Bits/(Pixel*Frame) : 0.154
Stream size : 4.96 GiB (97%)
Codec configuration box : avcC

Audio
ID : 2
Format : AAC LC
Codec ID : mp4a-40-2
Duration : 2 h 47 min
Bit rate mode : Constant
Bit rate : 132 kb/s
Channel(s) : 2 channels
Channel layout : L R
Sampling rate : 44.1 kHz
Frame rate : 43.066 FPS (1024 SPF)
Compression mode : Lossy
Stream size : 155 MiB (3%)
Default : Yes
Alternate group : 1

 

 

 

 

 


 

 

Watch Cage Warriors 104 720p WEB DL full show free mp4

 

 

 

 

Watch online

 

 

Waiting finish converting video

 

 

Server 1

 

 

 

 

 


 

 


 


 

 

Uploaded By Site DX-TV.com

 

 

 

open rar file to see this password

 

 

 

 

The password : DX-TV.com

 

 

 

 

Uploaded.net + rapidgator.net + DDL.to + katfile.com

 

 

 

 


 

 
https://shrt10.com/FHCZyz
 

 

 
https://shrt10.com/bbeL0L
 

 

 
https://shrt10.com/3YaDUx
 

 

 
https://shrt10.com/StRDch9q

 

 

 

 

 

 

 

 

 

 

 

Watch Cage Warriors 104 720p WEB DL full show free mp4