Watch Boxing Golden Boy 2018 08 17 HDTV x264 DX-TV /720p

Watch Boxing Golden Boy 2018 08 17 HDTV x264 DX-TV /720p

 

 

 

 


 

 

 

dx-tv.com

 

 

 

 

Complete name : Boxing Golden Boy 2018 08 17 HDTV x264 DX-TV.mp4
Format : MPEG-4
Format profile : QuickTime
File size : 1.15 GiB
Duration : 1 h 38 min
Overall bit rate : 1 671 kb/s
Writing application : Lavf55.33.100

Video
ID : 1
Format : HEVC
Duration : 1 h 38 min
Bit rate : 1 537 kb/s
Width : 720 pixels
Height : 480 pixels
Display aspect ratio : 3:2
Frame rate mode : Constant
Frame rate : 30.000 FPS
Bits/(Pixel*Frame) : 0.148
Stream size : 1.05 GiB (92%)
Language : English

Audio
ID : 2
Format : AAC
Format/Info : Advanced Audio Codec
Format profile : LC
Codec ID : mp4a-40-2
Duration : 1 h 38 min
Bit rate mode : Constant
Bit rate : 128 kb/s
Channel(s) : 2 channels
Channel positions : Front: L R
Sampling rate : 44.1 kHz
Frame rate : 43.066 FPS (1024 SPF)
Compression mode : Lossy
Stream size : 89.8 MiB (8%)
Language : English
Default : Yes

 

 

 

 

 

 
[EVENT]………..: Boxing Golden Boy 2018 08 17 720p HDTV x264 DX-TV mp4
[RELEASED]……..: 2018.08.17
[SOURCE]……….: ESPAN HD 1080i
[CONTAINER]…….: mp4
[SIZE]…………: 4.48 GB
[Capper Group]….: DX-TV
[Duration]……..: 1 h 38 m
[RESOLUTION]……: 1280 x 720 {16:9}@ 29.970 FPS
[VIDEO]………..: x264 @ 1500 kbps
[AUDIO]………..: AAC @ 160 kbps
[language]……..: English
 

 

 

 

 

 

 

 

 

Watch Boxing Golden Boy 2018 08 17 HDTV x264 DX-TV /720p

 

 

 

 

Watch online

 

 

Waiting finish converting video

 

 

Server 1

 

 

 

 

 

 

 

 

 

 

 

 

 

 

 

 

 

Server 2

 

 

 

 

 

 

 


 

 

 

 

 

 

Uploaded By Site DX-TV.com

 

 

 

open rar file to see this password

 

 

 

 

The password : DX-TV.com

 

 

 

 

Uploaded.net + rapidgator.net

 

 

 

 

 
http://shrt10.com/24jpeI
 

 
http://shrt10.com/XHU02
 

 
http://shrt10.com/yUr4
 

 
http://shrt10.com/Ii7J
 

 

 

 

 

 

 

 

 

 

Watch Boxing Golden Boy 2018 08 17 HDTV x264 DX-TV /720p