Watch Boxing Canelo Alvarez vs Sergey Kovalev 1080i

Watch Boxing Canelo Alvarez vs Sergey Kovalev 1080i HDTV DX-TV

 

 

wwe raw

 

 

 

 

dx-tv.com

 

 

 

 

Watch Boxing Canelo Alvarez vs Sergey Kovalev 1080i

 

 

 

 

 

Complete name : Boxing Canelo Alvarez vs. Sergey Kovalev_EN.mkv
Format : Matroska
Format version : Version 4
File size : 4.29 GiB
Duration : 1 h 15 min
Overall bit rate mode : Variable
Overall bit rate : 8 129 kb/s

Video
ID : 1
Duration : 1 h 15 min
Bit rate mode : Variable
Bit rate : 7 839 kb/s
Maximum bit rate : 12.0 Mb/s
Width : 1 920 pixels
Height : 1 080 pixels
Display aspect ratio : 16:9
Frame rate mode : Constant
Frame rate : 25.000 FPS
Color space : YUV
Chroma subsampling : 4:2:0
Bit depth : 8 bits
Scan type : Interlaced
Scan order : Top Field First
Bits/(Pixel*Frame) : 0.151
Stream size : 4.14 GiB (96%)
Default : Yes

Audio
ID : 2
Duration : 1 h 15 min
Bit rate mode : Constant
Bit rate : 128 kb/s
Channel(s) : 2 channels
Sampling rate : 48.0 kHz
Compression mode : Lossy
Delay relative to video : 216 ms
Stream size : 69.2 MiB (2%)

 

 

 

 

 

 

Watch online

 

 

Waiting finish converting video

 

 

Server 1

 

 

 

 

 

 

 

 

 

 

 

 

 

Server 2

 

 

 

 

 

 

 

 

 

 

 

 

 

 

 

Uploaded By Site DX-TV.com

 

 

 

 

 

Watch Boxing Canelo Alvarez vs Sergey Kovalev 1080i

 

 

 

 

 

 

Recommended For Free

 

 

 

 

earn4files.com

 

 

 

clicknupload.org

 

 

 

 

 

Download with high speed with Premium account

 

 

 

 

nitroflare.com

 

 

 

rapidgator.net

 

 

 

uploaded.net

 

 

 

uploadgig.com

 

 

 

 

 

 

Leave a Reply

Your email address will not be published. Required fields are marked *

12 + sixteen =