Watch Boxing 2019 05 11 FOX BC Fight Night 720p WEB DL MBC full show free mp4

 

 

 

 


 

 

 

dx-tv.com

 

 

 

 

 

Complete name : Boxing.2019.05.11.FOX.PBC.Fight.Night.720p.WEB-DL.h264-MBC.mkv
Format : Matroska
Format version : Version 4
File size : 3.80 GiB
Duration : 2 h 36 min
Overall bit rate : 3 471 kb/s

Video
ID : 1
Format : AVC
Format/Info : Advanced Video Codec
Format settings, Reference : 4 frames
Codec ID : V_MPEG4/ISO/AVC
Duration : 3 h 6 min
Bit rate mode : Constant
Bit rate : 2 808 kb/s
Nominal bit rate : 3 372 kb/s
Width : 1 280 pixels
Height : 720 pixels
Display aspect ratio : 16:9
Frame rate mode : Variable
Frame rate : 25.196 FPS
Original frame rate : 29.970 (30000/1001) FPS
Color space : YUV
Chroma subsampling : 4:2:0
Bit depth : 8 bits
Scan type : Progressive
Bits/(Pixel*Frame) : 0.121
Stream size : 3.65 GiB (96%)
Default : Yes
Forced : No

Audio
ID : 2
Format : AAC LC
Format/Info : Advanced Audio Codec Low Complexity
Codec ID : A_AAC-2
Duration : 3 h 6 min
Bit rate : 108 kb/s
Channel(s) : 2 channels
Channel layout : L R
Sampling rate : 48.0 kHz
Frame rate : 46.875 FPS (1024 SPF)
Compression mode : Lossy
Delay relative to video : -925 ms
Stream size : 144 MiB (4%)
Writing library : Lavc58.35.100 aac
Language : English
Default : Yes
Forced : No

 

 

 

 

 


 

 

 

Watch Boxing 2019 05 11 FOX BC Fight Night 720p WEB DL MBC full show free mp4

 

 

 

 

Watch online

 

 

Waiting finish converting video

 

 

Server 1

 

 

 

 

 

 

 

 

 

 

 

 

 

 

 

 

Server 2

 

 

 

 

 

 

 

 

 

 

 

 

 


 

 


 

 

 

Uploaded By Site DX-TV.com

 

 

 

open rar file to see this password

 

 

 

 

The password : DX-TV.com

 

 

 

 

Uploaded.net + rapidgator.net + katfile.com + bitster.cz

 

 

 

 


 

 

 

 
https://shrt10.com/fSl7Wjp
 

 

https://shrt10.com/JKMPE
 

 

https://shrt10.com/Nx95gn

 

 
https://shrt10.com/bKMa
 

 

 

 

 

 

Watch Boxing 2019 05 11 FOX BC Fight Night 720p WEB DL MBC full show free mp4