Watch Boxing 04 26 2019 Dazn Presents Wangek Vs Estrada Main Event And Undercard full show free mp4

 

 

 

 


 

 

 

dx-tv.com

 

 

 

 

Complete name : Boxing Dazn Presents Wangek Vs.Estrada Main Event And Undercard 04-26-2019.mp4
Format : MPEG-4
Format profile : Base Media / Version 2
Codec ID : mp42 (isom/iso2/avc1/mp41)
File size : 3.61 GiB
Duration : 5 h 10 min
Overall bit rate mode : Variable
Overall bit rate : 1 661 kb/s

Video
ID : 1
Format : AVC
Format/Info : Advanced Video Codec
Format settings, Reference : 4 frames
Codec ID : avc1
Codec ID/Info : Advanced Video Coding
Duration : 5 h 10 min
Bit rate : 1 500 kb/s
Width : 720 pixels
Height : 480 pixels
Display aspect ratio : 3:2
Frame rate mode : Variable
Frame rate : 29.970 FPS
Minimum frame rate : 21.297 FPS
Maximum frame rate : 29.980 FPS
Standard : NTSC
Color space : YUV
Chroma subsampling : 4:2:0
Bit depth : 8 bits
Scan type : Progressive
Bits/(Pixel*Frame) : 0.145
Stream size : 3.24 GiB (90%)
Color primaries : BT.709
Transfer characteristics : BT.709
Matrix coefficients : BT.709
Codec configuration box : avcC

Audio
ID : 2
Format : AAC LC
Format/Info : Advanced Audio Codec Low Complexity
Codec ID : mp4a-40-2
Duration : 5 h 10 min
Bit rate mode : Variable
Bit rate : 160 kb/s
Channel(s) : 2 channels
Channel layout : L R
Sampling rate : 48.0 kHz
Frame rate : 46.875 FPS (1024 SPF)
Compression mode : Lossy
Stream size : 357 MiB (10%)
Title : Stereo / Stereo
Default : Yes
Alternate group : 1

 

 

 

 

 


 

 

 

Watch Boxing 04 26 2019 Dazn Presents Wangek Vs Estrada Main Event And Undercard full show free mp4

 

 

 

 

Watch online

 

 

Waiting finish converting video

 

 

Server 1

 

 

 

 

 


 

 

 


 

 


 

 

 

Uploaded By Site DX-TV.com

 

 

 

open rar file to see this password

 

 

 

 

The password : DX-TV.com

 

 

 

 

Uploaded.net + rapidgator.net + DDL.to + katfile.com

 

 

 

 


 

 

https://shrt10.com/gn7BB

 

 

 
https://shrt10.com/O5hy
 

 

 

 

 

Watch Boxing 04 26 2019 Dazn Presents Wangek Vs Estrada Main Event And Undercard full show free mp4