Watch Black Label Pro 2018 11 03 Big Trouble in Little Crown Point 720p WEB NCMP

Watch Black Label Pro 2018 11 03 Big Trouble in Little Crown Point 720p WEB NCMP

 

 

 

 


 

 

 

dx-tv.com

 

 

 

 

 

 
Complete name : Black.Label.Pro.2018.11.03.Big.Trouble.in.Little.Crown.Point.720p.WEB.h264-NCMP.mp4
Format : MPEG-4
Format profile : Base Media
File size : 3.75 GiB
Duration : 3 h 23 min
Overall bit rate : 2 639 kb/s
Writing application : Lavf55.12.100

Video
ID : 2
Format : AVC
Format/Info : Advanced Video Codec
Codec ID/Info : Advanced Video Coding
Duration : 3 h 23 min
Bit rate : 2 504 kb/s
Width : 1 280 pixels
Height : 720 pixels
Display aspect ratio : 16:9
Frame rate mode : Variable
Frame rate : 29.970 FPS
Minimum frame rate : 18.868 FPS
Maximum frame rate : 30.303 FPS
Color space : YUV
Chroma subsampling : 4:2:0
Bit depth : 8 bits
Scan type : Progressive
Bits/(Pixel*Frame) : 0.091
Stream size : 3.56 GiB (95%)

Audio
ID : 1
Format : AAC
Format/Info : Advanced Audio Codec
Format profile : LC
Codec ID : mp4a-40-2
Duration : 3 h 23 min
Bit rate mode : Constant
Bit rate : 128 kb/s
Channel(s) : 2 channels
Channel positions : Front: L R
Sampling rate : 48.0 kHz
Frame rate : 46.875 FPS (1024 SPF)
Compression mode : Lossy
Stream size : 186 MiB (5%)
Default : Yes
Alternate group : 1

 

 

 

Watch Black Label Pro 2018 11 03 Big Trouble in Little Crown Point 720p WEB NCMP

 

 

 

 

Watch online

 

 

Waiting finish converting video

 

 

Server 1

 

 

 

 

 

 

 

Server 2

 

 

 

 

 

 

 

 

 

 

 

 

Uploaded By Site DX-TV.com

 

 

 

open rar file to see this password

 

 

The password : DX-TV.com

 

 

Uploaded.net + rapidgator.net

 

 

 

 

 
http://shrt10.com/ILemn6Ik

 

 

 
http://shrt10.com/qqdE377
 

Watch Black Label Pro 2018 11 03 Big Trouble in Little Crown Point 720p WEB NCMP

Leave a Reply

This site uses Akismet to reduce spam. Learn how your comment data is processed.