Watch Black Label Pro 2018 01 13 Were Not The Mounties WEB WD /720p

Watch Black Label Pro 2018 01 13 Were Not The Mounties WEB WD /720p

 

 

s

 

 

 

wwe

 

 

 

 

 

Complete name : \Black.Label.Pro.2018.01.13.Were.Not.The.Mounties.WEB.h264-WD.mp4
Format : MPEG-4
Format profile : Base Media
Codec ID : isom
File size : 1.13 GiB
Duration : 2h 23mn
Overall bit rate : 1 127 Kbps
Writing application : Lavf57.73.100

Video
ID : 1
Format : AVC
Format/Info : Advanced Video Codec
Codec ID : avc1
Codec ID/Info : Advanced Video Coding
Duration : 2h 23mn
Bit rate mode : Variable
Bit rate : 1 024 Kbps
Width : 854 pixels
Height : 480 pixels
Display aspect ratio : 16:9
Original display aspect ratio : 16:9
Frame rate mode : Variable
Frame rate : 23.976 fps
Minimum frame rate : 23.974 fps
Maximum frame rate : 7 500.000 fps
Color space : YUV
Chroma subsampling : 4:2:0
Bit depth : 8 bits
Scan type : Progressive
Bits/(Pixel*Frame) : 0.104
Stream size : 1.03 GiB (91%)
Writing library : x264 core 146
Audio
ID : 2
Format : AAC
Format/Info : Advanced Audio Codec
Format profile : HE-AAC / LC
Codec ID : 40
Duration : 2h 23mn
Bit rate mode : Constant
Bit rate : 96.0 Kbps
Channel(s) : 2 channels
Channel positions : Front: L R
Sampling rate : 44.1 KHz / 22.05 KHz
Compression mode : Lossy
Stream size : 98.6 MiB (9%)

 

 

 

 

 

 

 

 

 
Four Way Match º
º Dasher Hatfield vs. Gringo Loco vs. Jake Parnell vs. Markus Crane º
º º
º Singles Match º
º Kobe Durst vs. Rory Gulak º
º º
º Singles Match º
º Ethan Page vs. Pierre º
º º
º Singles Match º
º Brian Pillman II vs. Joey Janela º
º º
º Tag Team Match º
º Space Justice (Dick Justice & Space Monkey) vs. The Carnies (Kerry º
º Awful & Nick Iggy) º
º º
º BLP Title Match º
º Tom Lawlor (c) vs. Jonathan Gresham º
º º
º Black Label Pro Rumble Match
 

 

 

 

Watch Black Label Pro 2018 01 13 Were Not The Mounties WEB WD /720p

 

 

 

 

Watch online

 

 

Waiting finish converting video

 

 

Server 1

 

 

 

 

 

 

 

 

 

 

 

 

 

 

 

 

Server 2

 

 

 

 

 

 

 


 

 

 

 

Uploaded By Site DX-TV.com

 

 

 

open rar file to see this password

 

 

 

 

The password is : DX-TV.com

 

 

 

 

400p+720p

 

 

 

 

 

Uploaded.net + rapidgator.net

 

 

 

 

 

http://shrt10.com/PiD91MH

 

 

http://shrt10.com/GNTif

 

http://shrt10.com/BevzgN9

 

 

http://shrt10.com/6LzA

 

 

 

 

 

 

 

 

Watch Black Label Pro 2018 01 13 Were Not The Mounties WEB WD /720p