Watch Black Label Pr 2019 04 20 Players Brawl 720p WEB.h264-iNDYHEEL full show free mp4

Watch Black Label Pr 2019 04 20 Players Brawl 720p WEB.h264-iNDYHEEL full show free mp4

 

 

 

 


 

 

 

dx-tv.com

 

 

 

 

 

Complete name : Black.Label.Pro.2019.04.20.P_layers.Brawl.720p.WEB.h264-iNDYHEEL.mp4
Format : MPEG-4
Format profile : Base Media
Codec ID : isom
File size : 2.14 GiB
Duration : 3 h 3 min
Overall bit rate : 1 675 kb/s
Writing application : Lavf58.26.101

Video
ID : 1
Format : AVC
Format/Info : Advanced Video Codec
Format settings, Reference : 4 frames
Codec ID : avc1
Codec ID/Info : Advanced Video Coding
Duration : 3 h 3 min
Bit rate : 1 536 kb/s
Width : 1 280 pixels
Height : 720 pixels
Display aspect ratio : 16:9
Frame rate mode : Variable
Frame rate : 29.970 (29970/1000) FPS
Minimum frame rate : 29.960 FPS
Maximum frame rate : 29.970 FPS
Color space : YUV
Chroma subsampling : 4:2:0
Bit depth : 8 bits
Scan type : Progressive
Bits/(Pixel*Frame) : 0.056
Stream size : 1.97 GiB (92%)
Writing library : x264 core 152 r2854 e9a5903

Audio
ID : 2
Format : AAC LC
Format/Info : Advanced Audio Codec Low Complexity
Codec ID : mp4a-40-2
Duration : 3 h 3 min
Bit rate mode : Constant
Bit rate : 132 kb/s
Channel(s) : 2 channels
Channel layout : L R
Sampling rate : 48.0 kHz
Frame rate : 46.875 FPS (1024 SPF)
Compression mode : Lossy
Stream size : 170 MiB (8%)
Default : Yes
Alternate group : 1

 

 

 

 

 


 

 

 

Watch Black Label Pr 2019 04 20 Players Brawl 720p WEB.h264-iNDYHEEL full show free mp4

 

 

 

 

Watch online

 

 

Waiting finish converting video

 

 

Server 1

 

 

 

 

 


 

 

 


 

 


 

 

 

Uploaded By Site DX-TV.com

 

 

 

open rar file to see this password

 

 

 

 

The password : DX-TV.com

 

 

 

 

Uploaded.net + rapidgator.net + DDL.to + katfile.com

 

 

 

 


 

 

https://shrt10.com/SWbpBs

 

 

 

 
https://shrt10.com/hXtTz
 

 

 

 

Watch Black Label Pr 2019 04 20 Players Brawl 720p WEB.h264-iNDYHEEL full show free mp4

Author: snaw90

Leave a Reply

Your email address will not be published. Required fields are marked *