Watch BKFC 13 Full Show Online 720p

BKFC 13 Full Show Online DX-TV

 

BKFC 13 Full Show Online

 

 BKFC 13 Full Show Online
 


 

 

Watch BKFC 13 Full Show Online 720p

 

Full Card (BKTV, 8:00 pm ET)

  • Joey Beltran vs Marcel Stamps, heavyweights, 5 rounds
  • Nico Hernandez vs Chancey Wilson, junior bantamweights, 5 rounds
  • Dave Rickels vs Cliff Wright, light heavyweights, 5 rounds
  • Austin Levine vs Bill Dieckhoff, heavyweights, 5 rounds
  • Isaac Doolittle vs Brandon Johnson, light heavyweights, 5 rounds
  • Jack Freriks vs Antonio Hernandez, light heavyweights, 5 rounds
  • LJ Hermreck vs Rowdy Akers, welterweights, 5 rounds
  • Jon Hollis vs Fred Pierce, super middleweights, 5 rounds
  • Miles McDonald vs Kendrick Latchman, featherweights, 5 rounds

 

BKFC 13 Full Show Online

Complete name : BKFC.13.720p.WEB.totanon.mp4
Format : MPEG-4
Format profile : Base Media
Codec ID : mp42
File size : 3.45 GiB
Duration : 3 h 8 min
Overall bit rate mode : Variable
Overall bit rate : 2 629 kb/s

BKFC 13 Full Show Online

Video
ID : 1
Format : AVC
Format/Info : Advanced Video
Duration : 3 h 8 min
Bit rate mode : Constant
Bit rate : 2 500 kb/s
Width : 1 280 pixels
Height : 720 pixels
Display aspect ratio : 16:9
Frame rate mode : Constant
Frame rate : 29.970 FPS
Standard : NTSC
Color space : YUV
Chroma subsampling : 4:2:0
Bit depth : 8 bits
Scan type : Progressive
Bits/(Pixel*Frame) : 0.091
Stream size : 3.28 GiB (95%)
Color range : Limited
Color primaries : BT.709
Transfer characteristics : BT.709
Matrix coefficients : BT.709
Codec configuration box : avcC

BKFC 13 Full Show Online

Audio
ID : 2
Format : AAC LC
Format/Info : Advanced
Codec ID : mp4a-40-2
Duration : 3 h 8 min
Bit rate mode : Variable
Bit rate : 128 kb/s
Channel(s) : 2 channels
Channel layout : L R
Sampling rate : 48.0 kHz
Frame rate : 46.875 FPS
Compression mode : Lossy
Stream size : 172 MiB (5%)
Default : Yes
Alternate group : 1

 

 

 

Watch BKFC 13 Full Show Online 720p

 

 

 

 

Watch online

 

 

 

 

 

Server 1

 

 

 

 

watch now

 

 

 

 

Server-2

 

 

 

watch now

 

 

 

 

Server-3

 

 

 

BKFC 13 Full Show Online

 

 

 

 

Uploaded By Site DX-TV.com

 

 

 

 

Download Free Links with normal and high Speed [ more 14 hosts ]  

 

 

 

http://shrt10.com/157hcZsEZ
http://shrt10.com/UZN1nQI
http://shrt10.com/XJvrLlp
http://shrt10.com/igIeNz
http://shrt10.com/URsGP
http://shrt10.com/SMmCyJLt
http://shrt10.com/yifp2G
http://shrt10.com/I9Lhen

 

 

 

BKFC 13 Full Show Online

Download Links with premium High Speed   

 

 

 

 

dropapk.to

 

 

 

nitroflare.com

 

 

 

rapidgator.net

 

 

 

uploaded.net

 

 

 

uploadgig.com

 

 

 

 

 

dx-tv.com

 

urlfree.net

Leave a Reply

Your email address will not be published. Required fields are marked *

This site uses Akismet to reduce spam. Learn how your comment data is processed.