Watch BKB 20 A Night of Prize fighters 1080p

Watch BKB 20 A Night of Prize fighters 1080p DX-TV

 

 

BKB 20

 

 

 

 

dx-tv.com

 

 

 

 

Watch BKB 20 A Night of Prize fighters 1080p 

 

 

 

 

 

Complete name : BKB.20.A.Night.of.Prizefighters.1080p.mp4
Format : MPEG-4
Format profile : Base Media
Codec ID : isom (isom/iso2/avc1/mp41)
File size : 5.85 GiB
Duration : 3 h 25 min
Overall bit rate : 4 079 kb/s
Writing application : Lavf58.25.100

Video
ID : 1
Format : AVC
Duration : 3 h 25 min
Bit rate : 3 942 kb/s
Width : 1 920 pixels
Height : 1 080 pixels
Display aspect ratio : 16:9
Frame rate mode : Variable
Frame rate : 25.000 FPS
Minimum frame rate : 12.346 FPS
Maximum frame rate : 25.000 FPS
Color space : YUV
Chroma subsampling : 4:2:0
Bit depth : 8 bits
Scan type : Progressive
Bits/(Pixel*Frame) : 0.076
Stream size : 5.65 GiB (97%)
Codec configuration box : avcC

Audio
ID : 2
Format : AAC LC
Codec ID : mp4a-40-2
Duration : 3 h 25 min
Bit rate mode : Constant
Bit rate : 128 kb/s
Channel(s) : 2 channels
Channel layout : L R
Sampling rate : 44.1 kHz
Frame rate : 43.066 FPS (1024 SPF)
Compression mode : Lossy
Stream size : 188 MiB (3%)
Default : Yes
Alternate group : 1

 

 

 

Live Bare Knuckle Boxing at the Indigo O2 Arena. Tickets on sale now! As the dust settles on the best nights in combat sports around BKB19; We now look forward to BKB20!

 

 

Watch online

 

Server 1

 

 

 

 


 

 

 

Server 2

 

 

 

 


 

 

 

 

Watch BKB 20 A Night of Prize fighters 1080p Online

 

 

 

Uploaded By Site DX-TV.com

 

 

 

 

 

1fichier.com 

 

https://shrt10.com/cgQ4VbZ9
https://shrt10.com/9keku
https://shrt10.com/XANtOv
https://shrt10.com/JzowPL1r

 

DDL.to

 

htps://shrt10.com/66QiKs
https://shrt10.com/I127j
https://shrt10.com/NsJ1NuG7T
https://shrt10.com/9mzaMy

 

earn4files.com

 

https://shrt10.com/oQNPrRU5d
https://shrt10.com/EK09SUl
https://shrt10.com/ZVvFH
https://shrt10.com/wbykzZ94

 

filerio.in

 

https://shrt10.com/EFinD
https://shrt10.com/etag5zYk
https://shrt10.com/1AUzRmUJ
https://shrt10.com/gxHFwFiCT

rockfile.co

 

https://shrt10.com/5kNvezCs4
https://shrt10.com/XzffrSIO
https://shrt10.com/fNlKuenqo
https://shrt10.com/vV22ZT0O

 

 

 

Download with premium account Links 

 

 

nitroflare.com

 

 

rapidgator.net

 

 

uploaded.net

 

https://shrt10.com/2HSfMGRFO
https://shrt10.com/PVjkcB
https://shrt10.com/3W4lE
https://shrt10.com/Ipdx3I

 

 

 

 

 

 

 

WE need Staff/ Uploader/ Capper best quality For DX-TV
For More INFO Send PM for Admin on Email : [email protected]

X