Watch BJW at Korakuen Hall 2017 11 01

Watch BJW at Korakuen Hall 2017 11 01

 

 

 

 

 

 

wwe

 

 

 

 

 

 

 

Complete name : (2017.11.01) Big Japan at Korakuen Hall.mp4
Format : MPEG-4
Codec ID : mp42
File size : 1.95 GiB
Duration : 1h 54mn
Overall bit rate : 2 446 Kbps

Video
ID : 1
Format : AVC
Duration : 1h 54mn
Bit rate mode : Variable
Bit rate : 2 342 Kbps
Width : 1 280 pixels
Height : 720 pixels
Display aspect ratio : 16:9
Frame rate mode : Variable
Frame rate : 29.970 fps
Color space : YUV
Chroma subsampling : 4:2:0
Bit depth : 8 bits
Scan type : Progressive
Bits/(Pixel*Frame) : 0.085
Stream size : 1.87 GiB (96%)

Audio
ID : 2
Format : AAC
Format profile : LC
Codec ID : 40
Duration : 1h 54mn
Bit rate mode : Variable
Bit rate : 96.0 Kbps
Channel(s) : 2 channels
Channel positions : Front: L R
Sampling rate : 44.1 KHz
Compression mode : Lossy
Stream size : 78.6 MiB (4%)

 

 

 

 

 

 

 

 

 

 

 

 

 

Watch BJW at Korakuen Hall 2017 11 01

 

 

 

Watch online

 

 

Waiting finish converting video

 

 

Server 1

 

 

 

 

 

 

 

 

 

 

 

 

 

 

 

 

 

 

 

 

 

 

Srver 2

 

 

 

 

 

 

 


 

 

 

 

 

 

 

Server 3

 

 

 

 

 

 

 

 

 


 

 

 

 

 

Uploaded By Site DX-TV.com

 

 

 

open rar file to see this password

 

 

 

 

The password is : DX-TV.com

 

 

 

 

720p

 

 

 

 

Uploaded.net

 

 

 

 

 

 

 

http://shrt10.com/1vO3Gwb

 

 

 

 

 

 

 

 

 

 

 

rapidgator.net

 

 

 

 

 

 

 

 

http://shrt10.com/4G4465N1

 

 

 

 

 

 

 

 

Watch BJW at Korakuen Hall 2017 11 01