Watch BJW Endless Survivor 2019 05 05 free full show mp4

 

 

 

 


 

 

dx-tv.com

 

 

 

 

 
Complete name : (2019.05.05) BJW Endless Survivor 2019.mp4
Format : MPEG-4
Format profile : Base Media / Version 2
Codec ID : mp42 (mp42/isom)
File size : 2.02 GiB
Duration : 4 h 0 min
Overall bit rate mode : Variable
Overall bit rate : 1 204 kb/s
Encoded date : UTC 2019-05-05 14:58:55
Tagged date : UTC 2019-05-05 15:01:02

Video
ID : 1
Format : AVC
Format/Info : Advanced Video Codec
Format settings, : 4 frames
Codec ID : avc1
Codec ID/Info : Advanced Video Coding
Duration : 4 h 0 min
Bit rate : 1 102 kb/s
Width : 1 024 pixels
Height : 576 pixels
Display aspect ratio : 16:9
Frame rate mode : Variable
Frame rate : 29.970 (29970/1000) FPS
Minimum frame rate : 2.004 FPS
Maximum frame rate : 83.333 FPS
Color space : YUV
Chroma subsampling : 4:2:0
Bit depth : 8 bits
Scan type : Progressive
Bits/(Pixel*Frame) : 0.062
Stream size : 1.85 GiB (91%)
Encoded date : UTC 2019-05-05 14:58:55
Tagged date : UTC 2019-05-05 15:01:02
Codec configuration box : avcC

Audio
ID : 2
Format : AAC LC
Format/Info : Advanced Audio Codec Low Complexity
Codec ID : mp4a-40-2
Duration : 4 h 0 min
Source duration : 4 h 0 min
Bit rate mode : Variable
Bit rate : 96.0 kb/s
Channel(s) : 2 channels
Channel layout : L R
Sampling rate : 44.1 kHz
Frame rate : 43.066 FPS (1024 SPF)
Compression mode : Lossy
Stream size : 165 MiB (8%)
Source stream size : 165 MiB (8%)
Title : Stereo
Encoded date : UTC 2019-05-05 14:58:55
Tagged date : UTC 2019-05-05 15:01:02

 

 

 

 

 


 

 

Watch BJW Endless Survivor 2019 05 05 free full show mp4

 

 

 

 

Watch online

 

 

Waiting finish converting video

 

 

Server 1

 

 

 

 


 

 

 


 


 

 

Uploaded By Site DX-TV.com

 

 

 

open rar file to see this password

 

 

 

 

The password : DX-TV.com

 

 

 

 

Uploaded.net + rapidgator.net + katfile.com + bitster.cz

 

 

 

 


 

 
https://shrt10.com/GXhp
 

 

https://shrt10.com/oghX
 

 

https://shrt10.com/sl80P0j
 

 
https://shrt10.com/xnC9Hrd3
 

 

 

 

Watch BJW Endless Survivor 2019 05 05 free full show mp4