Watch BJW Endless Survivor 2019 05 05 720p free full show mp4

 

 

 

 

 


 


 

 

 

 

dx-tv.com

 

 

 

BJW Endless Survivor 2019 
(5/05/19) 
Yokohama, Kanagawa, Japan 
Yokohama Bunka Gymnasium 
2,409 Fans 

Takuho Kato & Akira Hyodo vs. Yuki Ishikawa & Kosuke Sato 

Shinobu & Yuya Aoki vs. Tatsuhiko Yoshino & Kota Sekifuda 
Sakuda) 

BJW Jr. Heavyweight Championship 
Kazuki Hashimoto (c) vs. TAJIRI 

All Asia Tag Team Championship 

 

 

Complete name : 2019.05.05.BJW.Endless.Survivor.2019.(Samurai.TV).mp4
Format : MPEG-4
Format profile : Base Media
Codec ID : isom (isom/iso2/avc1/mp41)
File size : 5.07 GiB
Duration : 4 h 26 min
Overall bit rate : 2 729 kb/s
Writing application : Lavf57.84.100

Video
ID : 1
Format : AVC
Format/Info : Advanced Video Codec
Format settings, Reference : 4 frames
Codec ID : avc1
Codec ID/Info : Advanced Video Coding
Duration : 4 h 26 min
Bit rate : 2 585 kb/s
Width : 1 280 pixels
Height : 720 pixels
Display aspect ratio : 16:9
Frame rate mode : Constant
Frame rate : 60.000 FPS
Color space : YUV
Chroma subsampling : 4:2:0
Bit depth : 8 bits
Scan type : Progressive
Bits/(Pixel*Frame) : 0.047
Stream size : 4.80 GiB (95%)
Codec configuration box : avcC

Audio
ID : 2
Format : AAC LC
Format/Info : Advanced Audio Codec Low Complexity
Codec ID : mp4a-40-2
Duration : 4 h 26 min
Bit rate mode : Constant
Bit rate : 128 kb/s
Channel(s) : 2 channels
Channel layout : L R
Sampling rate : 44.1 kHz
Frame rate : 43.066 FPS (1024 SPF)
Compression mode : Lossy
Stream size : 244 MiB (5%)
Title : simple_aac_recording
Default : Yes
Alternate group : 1

 

 

 

 

 


 

 

 

Watch BJW Endless Survivor 2019 05 05 720p free full show mp4

 

 

 

 

Watch online

 

 

Waiting finish converting video

 

 

Server 1

 

 

 

 


 

 

 

 


 

 


 

 

 

Uploaded By Site DX-TV.com

 

 

 

open rar file to see this password

 

 

 

 

The password : DX-TV.com

 

 

 

 

Uploaded.net + rapidgator.net + katfile.com + bitster.cz

 

 

 

 


 

 

https://shrt10.com/Zv3ntXti
 

 
https://shrt10.com/aPaz
 

 
https://shrt10.com/ZOsT
 

 
https://shrt10.com/99dWsRW2
 

 
https://shrt10.com/eKbI
 

 
https://shrt10.com/CLOR
 

 
https://shrt10.com/VBrpqL2
 

 
https://shrt10.com/HXLw
 

 

 

 

 

 

 

 

Watch BJW Endless Survivor 2019 05 05 720p free full show mp4