Watch Best Friends Jerry Lynn and Whipwreck

Watch Best Friends The Finale with Jerry Lynn and Mikey Whipwreck DX-TV

 

 

wwe raw

 

 

 

 

dx-tv.com

 

 

 

 

Watch Best Friends Jerry Lynn and Whipwreck

 

 

 

 

 

Complete name : Best Friends – The Finale with Jerry Lynn and Mikey Whipwreck.mp4
Format : MPEG-4
Format profile : Base Media
Codec ID : isom
File size : 1.00 GiB
Duration : 1 h 40 min
Overall bit rate : 1 424 kb/s
Writing application : Lavf57.72.101

Video
ID : 1
Format : AVC
Format/Info : Advanced Video Codec
Codec ID : avc1
Codec ID/Info : Advanced Video Coding
Duration : 1 h 40 min
Bit rate : 1 224 kb/s
Width : 1 280 pixels
Height : 720 pixels
Display aspect ratio : 16:9
Frame rate mode : Variable
Frame rate : 29.970 FPS
Minimum frame rate : 29.960 FPS
Maximum frame rate : 90 000.000 FPS
Color space : YUV
Chroma subsampling : 4:2:0
Bit depth : 8 bits
Scan type : Progressive
Bits/(Pixel*Frame) : 0.044
Stream size : 884 MiB (86%)
Codec configuration box : avcC

Audio
ID : 2
Format : AAC LC
Format/Info : Advanced
Codec ID : mp4a-40-2
Duration : 1 h 40 min
Bit rate mode : Constant
Bit rate : 192 kb/s
Channel(s) : 2 channels
Channel layout : L R
Sampling rate : 48.0 kHz
Frame rate : 46.875 FPS (1024 SPF)
Compression mode : Lossy
Stream size : 139 MiB (13%)
Default : Yes

 

 

 

 

 

 

Watch online

 

 

Waiting finish converting video

 

 

Server 1

 

 

 

 

 

 

 

 

 

 

 

 

 

Server 2

 

 

 

 

 

 

 

 

 

 

 

 

 

 

Uploaded By Site DX-TV.com

 

 

 

 

 

Watch Best Friends Jerry Lynn and Whipwreck

 

 

 

 

 

 

Recommended For Free

 

 

 

4downfiles.org

 

 

 

ddl.to

 

 

 

earn4files.com

 

 

 

fileup.cc

 

 

 

uptobox.com

 

 

 

 

Download with high speed with Premium account

 

 

 

 

nitroflare.com

 

 

 

rapidgator.net

 

 

 

uploaded.net

 

 

 

uploadgig.com

 

 

 

 

 

 

Leave a Reply

Your email address will not be published. Required fields are marked *

twelve − eleven =

WhatsApp chat