Watch Bellator Euro Series 9 Main Card 720p

Bellator Euro Series 9 Main Card 720pDX-TV

Bellator Euro Series 9

 

 Bellator Euro Series 9

Watch Bellator Euro Series 9 Main Card 720p

 

Elenore made a successful debut in Newcastle, England, in February of last year.

He submitted Nathan Greyson by first-round rear-naked choke to pick up his third win in his previous four outings.

Also booked for Oct. 3 is a middleweight bout between Charlie Ward (8-4) and Andy Manzolo (23-8).

is resuming its European Series with two upcoming shows at Allianz Cloud in Milan, Italy, on Sept. 26 and Oct. 3.

A third Milan show (not designated as a European Series entry) also takes place on Oct. 1,

headlined by Paul Daley and Derek Anderson and set to be the first event to air live on CBS Sports.

Bellator Euro Series 9

Main card:

 

James Gallagher vs. Cal Ellenor

Charlie Ward vs. Andy Manzolo

Kiefer Crosbie vs. Charlie Leary

Bellator Euro Series 9

Complete name : Bellator.Euro.Series.9.MainCard.WEB.720p.x264.mp4
Format : MPEG-4
Format profile : Base Media
Codec ID : mp42
File size : 1.13 GiB
Duration : 1 h 23 min
bit rate mode : Variable
Overall bit rate : 1 945 kb/s

Bellator Euro Series 9

Video
ID : 1
Format : AVC
Duration : 1 h 23 min
Bit rate : 1 814 kb/s
Width : 1 280 pixels
Height : 720 pixels
Display aspect ratio : 16:9
Frame rate mode : Constant
Frame rate : 30.000 FPS
Color space : YUV
Chroma subsampling : 4:2:0
Bit depth : 8 bits
Scan type : Progressive
Bits/(Pixel*Frame) : 0.066
Stream size : 1.05 GiB (93%)
Color range : Limited
Color primaries : BT.709
Transfer characteristics : BT.709
Matrix coefficients : BT.709
Codec configuration box : avcC

Bellator Euro Series 9

Audio
ID : 2
Format : AAC LC
Format/Info : Advanced Audio
Codec ID : mp4a-40-2
Duration : 1 h 23 min
Source duration : 1 h 23 min
Bit rate mode : Variable
Bit rate : 128 kb/s
Channel(s) : 2 channels
Channel layout : L R
Sampling rate : 44.1 kHz
Frame rate : 43.066 FPS
Compression mode : Lossy
Stream size : 76.0 MiB (7%)
Source stream size : 76.0 MiB (7%)
Language : English

 

 

 

Watch Bellator Euro Series 9 Main Card 720p

 

 

 

 

Watch online

 

 

 

 

 

Server 1

 

 

 

 

watch now

 

 

 

 

Server-2

 

 

 

watch now

 

 

 

 

Server-3

 

 

 

Bellator Euro Series 9

 

 

 

 

Uploaded By Site DX-TV.com

 

 

 

 

Download Free Links with normal and high Speed [ more 14 hosts ]  

 

 

 

http://shrt10.com/99A4CPjv
http://shrt10.com/vmE5M
http://shrt10.com/PeOiOPA
http://shrt10.com/wK08F
http://shrt10.com/SHPJI
http://shrt10.com/KQByOpJtE
http://shrt10.com/aSA7h
http://shrt10.com/DlBGa
http://shrt10.com/pbQl7xyp
http://shrt10.com/EmJgs
http://shrt10.com/Mb2tv

 

 

 

 

Download Links with premium High Speed   

 

 

 

nitroflare.com

 

 

 

rapidgator.net

 

 

 

uploaded.net

 

 

 

uploadgig.com

 

 

 

 

 

dx-tv.com

 

urlfree.net

Leave a Reply

Your email address will not be published. Required fields are marked *

This site uses Akismet to reduce spam. Learn how your comment data is processed.