Watch Bellator Euro Series 8 Full Show 720p

 Bellator Euro Series 8 Full Show 720p DX-TV

 

Bellator Euro Series 8

 

 WWE RAW
 


 

 

Watch Bellator Euro Series 8 Full Show 720p

 

 

  returned to Milan, Italy, the first time it has ventured outside of the Fight Sphere at the Mohegan Sun Arena in Connecticut since it return in July.

Bellator Euro Series 8, the first of two straight cards in the Italian city, was topped by rising prospect Fabian Edwards going up against Costello Van Steenis. Brother of UFC standout Leon Edwards, Fabian was getting his toughest test to date. Also on the card, names like Mike Shipman, and Ireland’s Will Fleury.

Bellator Euro Series 8

Earlier on the Bellator Euro Series 8 card, preliminary action brought names like Ion Pascu, and Ultimate Fighter alum Richie Smullen with it. Not to mention Alfie Davis, a Cage Warriors and KSW vet who won all three of his Bellator bouts in 2019.

 

Bellator Euro Series 8 Preliminary Card Results

George Hardwick vs. Nicolò Solli by unanimous decision (30-27, 30-27, 30-27)
Ion Pascu def. Stefano Paterno by unanimous decision (29-28, 30-27, 30-27)
Alfie Davis def. Akonne Wanliss by unanimous decision (30-26, 30-27, 30-27)
Daniel Scatizzi def. Gavin Hughes by submission (guillotine choke), Round 1, 1:41
Adien Lee def. Jeremy Petley by knockout (head kick), Round 2, 1:22
Frans Mlambo def. Corey Tait by unanimous decision (30-27, 29-28, 29-27)
Luke Trainer def. Alex O’Toole by TKO, Round 1, 1:22
Richie Smullen def. Harry Hardwick by unanimous decision (29-28, 29-28, 29-28)
Chiara Penco def. Aleksandra Plamenova by TKO (elbows), Round 2, 4:27
Danni Neilan def. Claire Lopez by submission (rear-naked choke), Round 2, 3:45

Bellator Euro Series 8

Complete name : Bellator.Euro.Series.8.MainCard.WEB.720p.x264.mp4
Format : MPEG-4
Format profile : Base Media
Codec ID : mp42
File size : 1.67 GiB
Duration : 2 h 5 min
Overall bit rate mode : Variable
Overall bit rate : 1 911 kb/s

Bellator Euro Series 8

Video
ID : 1
Format : AVC
Duration : 2 h 5 min
Bit rate : 1 779 kb/s
Width : 1 280 pixels
Height : 720 pixels
Display aspect ratio : 16:9
Frame rate mode : Constant
Frame rate : 30.000 FPS
Color space : YUV
Chroma : 4:2:0
Bit depth : 8 bits
Scan type : Progressive
Bits/(Pixel*Frame) : 0.064
Stream size : 1.56 GiB (93%)
Color range : Limited
Color primaries : BT.709
Transfer characteristics : BT.709
Matrix coefficients : BT.709
Codec configuration box : avcC

Bellator Euro Series 8

Audio
ID : 2
Format : AAC LC
Codec ID : mp4a-40-2
Duration : 2 h 5 min
Bit rate mode : Variable
Bit rate : 128 kb/s
Channel(s) : 2 channels
Channel layout : L R
Sampling rate : 44.1 kHz
Frame rate : 43.066 FPS (1024 SPF)
Compression mode : Lossy
Stream size : 115 MiB (7%)
Language : English

 

 

 

Watch Bellator Euro Series 8 Full Show 720p

 

 

 

 

Watch online

 

 

 

 

 

Server 1

 

 

 

 

Bellator Euro Series 8

 

 

 

 

Server-2

 

 

 

watch now

 

 

 

 

Server-3

 

 

 

watch now

 

 

 

 

Uploaded By Site DX-TV.com

 

 

 

 

Download Free Links with normal and high Speed [ more 15 hosts ]  

 

 

 

http://shrt10.com/4GDN7
http://shrt10.com/T7RIfS
http://shrt10.com/zF5w4J
http://shrt10.com/15KGjXTZ
http://shrt10.com/it3tT
http://shrt10.com/btmCGb
http://shrt10.com/LtJQe
http://shrt10.com/twi0N6
http://shrt10.com/DVfYHuAMY
http://shrt10.com/VtVE86Kg
http://shrt10.com/zLqti
http://shrt10.com/LM42KWbI
http://shrt10.com/FCUinD3uO

 

 

 

 

Download Links with premium High Speed   

 

 

 

 

 

nitroflare.com

 

 

 

rapidgator.net

 

 

 

uploaded.net

 

 

 

uploadgig.com

 

 

 

 

 

dx-tv.com

 

urlfree.net

Leave a Reply

Your email address will not be published. Required fields are marked *

This site uses Akismet to reduce spam. Learn how your comment data is processed.