Watch Bellator 254 Main Card 1080P Free Online DX-TV

Watch Bellator 254 Main Card 1080P Free Online DX-TV

Watch Bellator 254 Main Card

 

 Watch Bellator 254

 

[su_expand more_text=”Show More Info” less_text=”Close all Info” height=”50″ text_color=”#000000″ link_color=”#e25f8b” link_style=”button” more_icon=”icon: arrow-down” less_icon=”icon: arrow-up”]

Complete name : Bellator.254.MainCard.1080P.WEB-DL-SG84.mp4
Format : MPEG-4
Format profile : Base Media
File size : 4.17 GiB
Duration : 2 h 36 min
Overall bit rate mode : Variable
Overall bit rate : 3 811 kb/s

Watch Bellator 254

Video
ID : 1
Format : AVC
Duration : 2 h 36 min
Bit rate : 3 680 kb/s
Width : 1 920 pixels
Height : 1 080 pixels
aspect ratio : 16:9
Frame rate mode : Constant
Frame rate : 29.970 FPS
Color space : YUV
Chroma subsampling : 4:2:0
Bit depth : 8 bits
Scan type : Progressive
Bits/(Pixel*Frame) : 0.059
Stream size : 4.03 GiB (97%)
Color range : Limited
Color primaries : BT.709
Transfer characteristics : BT.709
Matrix coefficients : BT.709
Codec configuration box : avc

Watch Bellator 254

Audio
ID : 2
Format : AAC LC
Format/Info : Advanced Audio Codec
Codec ID : mp4a-40-2
Duration : 2 h 36 min
Bit rate mode : Variable
Bit rate : 128 kb/s
Channel(s) : 2 channels
Channel layout : L R
Sampling rate : 44.1 kHz
Frame rate : 43.066 FPS (1024 SPF)
Compression mode : Lossy
Stream size : 144 MiB (3%)
Language : English
Default : Yes

Watch Bellator 254 Main Card

Complete name :Bellator.254.Prelims.1080P.WEB-DL-SG84.mp4
Format : MPEG-4
File size : 3.41 GiB
Duration : 2 h 23 min
Overall bit rate mode : Variable
Overall bit rate : 3 402 kb/s

Video
ID : 1
Format : AVC
Duration : 2 h 23 min
Bit rate : 3 270 kb/s
Width : 1 920 pixels
Height : 1 080 pixels
Display aspect ratio : 16:9
Frame rate mode : Constant
rate : 29.970 (30000/1001) FPS
Color space : YUV
Chroma subsampling : 4:2:0
Bit depth : 8 bits
Scan type : Progressive
Bits/(Pixel*Frame) : 0.053
Stream size : 3.28 GiB (96%)
Color range : Limited
Color primaries : BT.709
Transfer characteristics : BT.709
Matrix coefficients : BT.709
Codec configuration box : av

Watch Bellator 254

Audio
ID : 2
Format : AAC LC
Codec ID : mp4a-40-2
Duration : 2 h 23 min
Bit rate mode : Variable
Bit rate : 128 kb/s
Channel(s) : 2 channels
Channel layout : L R
Sampling rate : 44.1 kHz
Frame rate : 43.066 FPS (1024 SPF)
Compression mode : Lossy
Stream size : 131 MiB (4%)
Language : English
Default : Yes

 

 

[/su_expand]

 

 

Watch online

 

Server 1

 

 

Main Card

 

Watch Bellator 254

 

 

Prelims

 

Watch Bellator 254

 

 

Server-2

 

 

Main Card

 

 

watch now

 

 

Prelims

 

 

watch now

 

 

 

 

Uploaded By Site DX-TV.com

Watch Bellator 254

Download Links with premium High Speed   

 

dropapk.to

http://shrt10.com/50HKz
http://shrt10.com/YOkmJ2

 

 

nitroflare.com

http://shrt10.com/tqFG2Ul
http://shrt10.com/Vy5D2On6

 

 

rapidgator.net

http://shrt10.com/gLacqU
http://shrt10.com/ZItKBU

 

 

uploaded.net

http://shrt10.com/ZrEy6Or

http://shrt10.com/otcGO

 

uploadgig.com

http://shrt10.com/JaTYLAcn
http://shrt10.com/voZky

 

 

 

https://dx-tv.com/

You May Also Like

Leave a Reply

Your email address will not be published. Required fields are marked *

This site uses Akismet to reduce spam. Learn how your comment data is processed.