Watch Bellator 249 Free Online 720p 2020 10 16

Watch Bellator 249 Free Online 720p 2020 10 16 DX-TV

 

Bellator 249 Free Online

 

 Bellator 249 Free Online
 


 

 

Watch Bellator 249 Free Online 720p 2020 10 16

 

 

WHEN IS CRIS CYBORG VS ARLENE BLENCOWE AT BELLATOR 249?

  • Date: Thursday, Oct. 15
  • Prelims: 7:15 p.m. ET
  • Main card: 10 p.m. ET 

 takes place on Thursday, Oct. 15.  Prelims get underway at 7:15 p.m. ET, followed by the main card at 10 p.m. ET.

Cyborg and Blencowe should start about 11:30 p.m ET, but the time depends on the length of the earlier fights.

Bellator 249 Free Online

HOW TO WATCH BELLATOR 249: CYBORG VS BLENCOWE TV, LIVE STREAM INFO

In the United States, the Bellator 249 prelims and main card are available on DAZN.

The main card is also available on CBS Sports Network.

In Canada is available on DAZN.

In Germany, the main card (4:00 a.m. CEST) is available on DAZN.

Bellator 249 Free Online

BELLATOR 249: CYBORG VS. BLENCOWE FIGHT CARD

MAIN CARD

Cris Cyborg (c) vs. Arlene Blencowe for Cyborg’s Women’s Featherweight title
Patricky Freire vs. Jeleel Willis; Lightweight
Ricky Bandejas vs. Leandro Higo; Bantamweight
Saad Awad vs. Mandel Nallo; Lightweight

Bellator 249 Free Online

Complete name : Bellator 249 720p HDTV.X264 DX-TV.mp4
Format : MPEG-4
Format profile : Base Media
Codec ID : isom
File size : 2.04 GiB
Duration : 1 h 46 min
Overall bit rate : 2 746 kb/s
Writing application : Lavf55.48.100

Bellator 249 Free Online

Video
ID : 1
Format : AVC
Duration : 1 h 46 min
Bit rate : 2 599 kb/s
Width : 1 280 pixels
Height : 720 pixels
Display aspect ratio : 16:9
Frame rate mode : Constant
Frame rate : 25.000 FPS
Color space : YUV
Chroma subsampling : 4:2:0
Bit depth : 8 bits
Scan type : Progressive
Bits/(Pixel*Frame) : 0.113
Stream size : 1.94 GiB (95%)
Writing library : x264 core 148

Bellator 249 Free Online

Audio
ID : 2
Format : AAC LC
Format/Info : Advanced Audio
Codec ID : mp4a-40-2
Duration : 1 h 46 min
Bit rate mode : Constant
Bit rate : 128 kb/s
Channel(s) : 2 channels
Channel layout : L R
Sampling rate : 48.0 kHz
Frame rate : 46.875 FPS (1024 SPF)
Compression mode : Lossy
Stream size : 97.6 MiB (5%)
Default : Yes
Alternate group : 1 

Watch Bellator 249 Free Online 720p 2020 10 16

 

 

Watch online

 

Server 1

 

 

 

 

watch now

 

 

 

 

Server-2

 

 

 

Bellator 249 Free Online

 

 

 

 

Server-3

 

 

 

watch now

 

 

 

 

Uploaded By Site DX-TV.com

 

 

 

 

Download Free Links with normal and high Speed [ more 14 hosts ]  

 

 

 

 

http://shrt10.com/4RaQA
http://shrt10.com/8qFSZ
http://shrt10.com/gkCa54
http://shrt10.com/VGKmnEaao
http://shrt10.com/bwyW4
http://shrt10.com/G6ayW9m1
http://shrt10.com/UE6Q3kKz
http://shrt10.com/EFHURQ
http://shrt10.com/QA4Yq7
http://shrt10.com/922ibXQYj

 

 

 

Download Links with premium High Speed   

 

 

 

dropapk.to

 

 

 

nitroflare.com

 

 

 

rapidgator.net

 

 

 

uploaded.net

 

 

 

uploadgig.com

 

 

 

 

 

dx-tv.com

 

urlfree.net

Leave a Reply

Your email address will not be published. Required fields are marked *

This site uses Akismet to reduce spam. Learn how your comment data is processed.