Watch Bellator 221 720p WEB lulz full show free mp4

 

 

 

 

 

 

 

dx-tv.com

 

 

 

 

 

Complete name : Bellator.221.720p.WEB.h264-lulz.mkv
Format : Matroska
Format version : Version 4
File size : 3.85 GiB
Duration : 2 h 38 min
Overall bit rate : 3 485 kb/s

Video
ID : 1
Format : AVC
Format/Info : Advanced Video Codec
Format settings, Reference : 1 frame
Codec ID : V_MPEG4/ISO/AVC
Duration : 2 h 38 min
Bit rate : 3 354 kb/s
Width : 1 280 pixels
Height : 720 pixels
Display aspect ratio : 16:9
Frame rate mode : Variable
Frame rate : 50.000 FPS
Color space : YUV
Chroma subsampling : 4:2:0
Bit depth : 8 bits
Scan type : Progressive
Bits/(Pixel*Frame) : 0.073
Stream size : 3.71 GiB (96%)
Default : Yes
Forced : No

Audio
ID : 2
Format : AAC LC
Format/Info : Advanced Audio Codec Low Complexity
Codec ID : A_AAC-2
Duration : 2 h 38 min
Bit rate : 128 kb/s
Channel(s) : 2 channels
Channel layout : L R
Sampling rate : 48.0 kHz
Frame rate : 46.875 FPS (1024 SPF)
Compression mode : Lossy
Delay relative to video : 19 ms
Stream size : 145 MiB (4%)
Default : Yes
Forced : No

 

 

 

 

 


 

 

 

Watch Bellator 221 720p WEB lulz full show free mp4

 

 

 

 

Watch online

 

 

Waiting finish converting video

 

 

Server 1

 

 

 

 

 


 

 

 

 

 

 

 

Server 1

 

 

 

 

 


 

 

 

 

 

 


 

 


 

 

 

Uploaded By Site DX-TV.com

 

 

 

open rar file to see this password

 

 

 

 

The password : DX-TV.com

 

 

 

 

Uploaded.net + rapidgator.net + katfile.com + bitster.cz

 

 

 

 


 

 

 
https://shrt10.com/owVLm
 

 
https://shrt10.com/5DMCv7s
 

 
https://shrt10.com/yqsmFV

 

 
https://shrt10.com/6X1E
 

 

 

 

 

 

Watch Bellator 221 720p WEB lulz full show free mp4