Watch Bellator 220 Main Card 27 04 2019 ENG WEB DL Rpunk full show free mp4

 

 

 

 


 

 

 

dx-tv.com

 

 

 

 

 

Complete name : Bellator 220 Main Card [27.04.2019 480p ENG] WEB-DL-Rpunk.MP4
Format : MPEG-4
Format profile : Base Media
Codec ID : isom (isom/iso2/avc1/mp41)
File size : 1.49 GiB
Duration : 3 h 9 min
Overall bit rate : 1 130 kb/s
Writing application : Lavf58.20.100

Video
ID : 1
Format : AVC
Format/Info : Advanced Video Codec
Format settings, Reference : 4 frames
Codec ID : avc1
Codec ID/Info : Advanced Video Coding
Duration : 3 h 9 min
Duration_FirstFrame : 46 ms
Bit rate : 1 000 kb/s
Width : 852 pixels
Height : 480 pixels
Display aspect ratio : 16:9
Frame rate mode : Constant
Frame rate : 25.000 FPS
Color space : YUV
Chroma subsampling : 4:2:0
Bit depth : 8 bits
Scan type : Progressive
Bits/(Pixel*Frame) : 0.098
Stream size : 1.32 GiB (88%)

Audio
ID : 2
Format : AAC LC
Format/Info : Advanced Audio
Codec ID : mp4a-40-2
Duration : 3 h 9 min
Duration_LastFrame : -15 ms
Bit rate mode : Constant
Bit rate : 128 kb/s
Channel(s) : 2 channels
Channel layout : L R
Sampling rate : 44.1 kHz
Frame rate : 43.066 FPS (1024 SPF)
Compression mode : Lossy
Stream size : 173 MiB (11%)
Default : Yes
Alternate group : 1

 

 

 

 

 


 

 

 

Watch Bellator 220 Main Card 27 04 2019 ENG WEB DL Rpunk full show free mp4

 

 

 

 

Watch online

 

 

Waiting finish converting video

 

 

Server 1

 

 

 

 

 


 

 

 


 

 


 

 

 

Uploaded By Site DX-TV.com

 

 

 

open rar file to see this password

 

 

 

 

The password : DX-TV.com

 

 

 

 

Uploaded.net + rapidgator.net + DDL.to + katfile.com

 

 

 

 


 

 

 

https://shrt10.com/IPgG
 

 
https://shrt10.com/11TD8w
 

 
https://shrt10.com/WWdO
 

 
https://shrt10.com/D4mcES

 

 

 

 

 

Watch Bellator 220 Main Card 27 04 2019 ENG WEB DL Rpunk full show free mp4