Watch Bellator 220 MacDonald vs Fitch 27 04 2019 Lang RUSS full show free mp4

 

 

 

 


 

 

 

dx-tv.com

 

 

 

 

Complete name : Bellator 220 MacDonald vs. Fitch 27.04.2019.mkv
Format : Matroska
Format version : Version 4
File size : 3.58 GiB
Duration : 3 h 4 min
Overall bit rate : 2 774 kb/s

Video
ID : 1
Format : AVC
Format/Info : Advanced Video Codec
Format settings, Reference : 3 frames
Codec ID : V_MPEG4/ISO/AVC
Duration : 3 h 4 min
Bit rate : 2 580 kb/s
Width : 720 pixels
Height : 576 pixels
Display aspect ratio : 16:9
Original display aspect rat : 16:9
Frame rate mode : Constant
Frame rate : 25.000 FPS
Standard : Component
Color space : YUV
Chroma subsampling : 4:2:0
Bit depth : 8 bits
Scan type : Interlaced
Scan order : Top Field First
Bits/(Pixel*Frame) : 0.249
Stream size : 3.33 GiB (93%)
Default : No
Forced : No
Color range : Limited
Color primaries : BT.601 PAL
Transfer characteristics : BT.470 System B/G
Matrix coefficients : BT.470 System B/G

Audio
ID : 2
Format version : Version 1
Format profile : Layer 2
Codec ID : A_MPEG/L2
Codec ID/Hint : MP2
Duration : 3 h 4 min
Bit rate mode : Constant
Bit rate : 192 kb/s
Channel(s) : 2 channels
Sampling rate : 48.0 kHz
Frame rate : 41.667 FPS (1152 SPF)
Compression mode : Lossy
Stream size : 254 MiB (7%)
Language : Russian
Default : Yes
Forced : No

 

 

 

 

 


 

 

 

Watch Bellator 220 MacDonald vs Fitch 27 04 2019 Lang RUSS full show free mp4

 

 

 

 

Watch online

 

 

Waiting finish converting video

 

 

Server 1

 

 

 

 

 


 

 

 


 

 


 

 

 

Uploaded By Site DX-TV.com

 

 

 

open rar file to see this password

 

 

 

 

The password : DX-TV.com

 

 

 

 

Uploaded.net + rapidgator.net + DDL.to + katfile.com

 

 

 

 


 

 

https://shrt10.com/sFUP5

 

 

 

 
https://shrt10.com/exw1
 

 

 

 

Watch Bellator 220 MacDonald vs Fitch 27 04 2019 Lang RUSS full show free mp4