Watch Bar Wrestling 34 2019 04 25 Bonesaws Ready 720p WEB NCMP full show free mp4

Watch Bar Wrestling 34 2019 04 25 Bonesaws Ready 720p WEB NCMP full show free mp4

 

 

 

 


 

 

 

dx-tv.com

 

 

 

 

 

Complete name : Bar.Wrestling.34.2019.04.25.Bonesaws.Ready.720p.WEB.h264-NCMP.mp4
Format : MPEG-4
Format profile : Base Media
Codec ID : isom (isom/iso2/avc1/mp41)
File size : 1.25 GiB
Duration : 1 h 18 min
Overall bit rate : 2 276 kb/s
Writing application : Lavf56.19.101

Video
ID : 1
Format : AVC
Format/Info : Advanced Video Codec
Format settings, Reference : 3 frames
Codec ID : avc1
Codec ID/Info : Advanced Video Coding
Duration : 1 h 18 min
Bit rate : 2 139 kb/s
Width : 1 280 pixels
Height : 720 pixels
Display aspect ratio : 16:9
Frame rate mode : Variable
Frame rate : 29.970 FPS
Minimum frame rate : 29.960 FPS
Maximum frame rate : 90 000.000 FPS
Color space : YUV
Chroma subsampling : 4:2:0
Bit depth : 8 bits
Scan type : Progressive
Bits/(Pixel*Frame) : 0.077
Stream size : 1.18 GiB (94%)
Codec configuration box : avcC

Audio
ID : 2
Format : AAC LC
Format/Info : Advanced Audio Codec Low Complexity
Codec ID : mp4a-40-2
Duration : 1 h 18 min
Bit rate mode : Constant
Bit rate : 128 kb/s
Channel(s) : 2 channels
Channel layout : L R
Sampling rate : 48.0 kHz
Frame rate : 46.875 FPS (1024 SPF)
Compression mode : Lossy
Stream size : 72.1 MiB (6%)
Default : Yes
Alternate group : 1

 

 

 

 

 


 

 

 

Watch Bar Wrestling 34 2019 04 25 Bonesaws Ready 720p WEB NCMP full show free mp4

 

 

 

 

Watch online

 

 

Waiting finish converting video

 

 

Server 1

 

 

 

 


 

 

 

 


 

 


 

 

 

Uploaded By Site DX-TV.com

 

 

 

open rar file to see this password

 

 

 

 

The password : DX-TV.com

 

 

 

 

Uploaded.net + rapidgator.net + katfile.com + bitster.cz

 

 

 

 


 

 

 

https://shrt10.com/raetf
 

 

 
https://shrt10.com/ILJH6GSE
 

 

 
https://shrt10.com/dZIc7
 

 

 
https://shrt10.com/dr8HNlDP
 

 

 
https://shrt10.com/DOT9kL
 

 

 

 

 

Watch Bar Wrestling 34 2019 04 25 Bonesaws Ready 720p WEB NCMP full show free mp4

Author: snaw90

Leave a Reply

Your email address will not be published. Required fields are marked *