Watch Bar Wrestling 33 2019 04 10 Juiced 720p WEB iNDYHEEL

Watch Bar Wrestling 33 2019 04 10 Juiced 720p WEB iNDYHEEL

 

 

 

 


 

 

 

dx-tv.com

 

 

 

 

 

Complete name : Bar.Wrestling.33.2019.04.10.Juiced.720p.WEB.h264-iNDYHEEL.mp4
Format : MPEG-4
Format profile : Base Media
Codec ID : isom
File size : 1.26 GiB
Duration : 1h 18mn
Overall bit rate : 2 299 Kbps
Writing application : Lavf58.23.101

Video
ID : 1
Format : AVC
Format/Info : Advanced Video Codec
Format settings, ReFrames : 3 frames
Codec ID : avc1
Codec ID/Info : Advanced Video Coding
Duration : 1h 21mn
Bit rate mode : Variable
Bit rate : 2 071 Kbps
Width : 1 280 pixels
Height : 720 pixels
Display aspect ratio : 16:9
Frame rate mode : Variable
Color space : YUV
Chroma subsampling : 4:2:0
Bit depth : 8 bits
Scan type : Progressive
Stream size : 1.18 GiB (94%)

Audio
ID : 2
Format : AAC
Format/Info : Advanced Audio Codec
Format profile : LC
Codec ID : 40
Duration : 1h 18mn
Bit rate mode : Variable
Bit rate : 128 Kbps
Maximum bit rate : 130 Kbps
Channel(s) : 2 channels
Channel positions : Front: L R
Sampling rate : 48.0 KHz
Compression mode : Lossy
Stream size : 71.7 MiB (6%)

 

 

 

 


 

 

 

Watch Bar Wrestling 33 2019 04 10 Juiced 720p WEB iNDYHEEL

 

 

 

 

Watch online

 

 

Waiting finish converting video

 

 

Server 1

 

 

 

 

 

 

 

 

 


 

 

 

 

Server 2

 

 

 

 

 


 

 

 

 


 

 

 

Uploaded By Site DX-TV.com

 

 

 

open rar file to see this password

 

 

 

 

The password : DX-TV.com

 

 

 

 

Uploaded.net + rapidgator.net

 

 

 

 


 

 

 

https://shrt10.com/ql2h6

 

 

 
https://shrt10.com/WmgKKJSS
 

 

 

 

Watch Bar Wrestling 33 2019 04 10 Juiced 720p WEB iNDYHEEL

Author: snaw90

Leave a Reply

Your email address will not be published. Required fields are marked *