Watch Bar Wrestling 22 2018 11 01 720p WEB NCMP

Watch Bar Wrestling 22 2018 11 01 720p WEB NCMP

 

 

 

 


 

 

 

dx-tv.com

 

 

 

 

Complete name : Bar.Wrestling.22.2018.11.01.720p.WEB.h264-NCMP.mp4
Format : MPEG-4
Format profile : Base Media
File size : 1.60 GiB
Duration : 1 h 25 min
Overall bit rate mode : Variable
Overall bit rate : 2 672 kb/s
Writing application : Lavf55.12.100

Video
ID : 2
Format : AVC
Format settings, GOP : M=1, N=10
Codec ID : avc1
Duration : 1 h 25 min
Bit rate : 2 590 kb/s
Width : 1 280 pixels
Height : 720 pixels
Display aspect ratio : 16:9
Frame rate mode : Constant
Frame rate : 29.970
Color space : YUV
Chroma subsampling : 4:2:0
Bit depth : 8 bits
Scan type : Progressive
Bits/(Pixel*Frame) : 0.094
Stream size : 1.55 GiB (97%)
Color range : Limited
Color primaries : BT.709
Transfer characteristics : BT.709
Matrix coefficients : BT.709

Audio
ID : 1
Format : AAC
Format/Info : Advanced Audio Codec
Format profile : LC
Codec ID : mp4a-40-2
Duration : 1 h 25 min
Bit rate mode : Variable
Bit rate : 74.9 kb/s
Maximum bit rate : 81.0 kb/s
Channel(s) : 2 channels
Channel positions : Front: L R
Sampling rate : 48.0 kHz
Frame rate : 46.875 FPS (1024 SPF)
Compression mode : Lossy
Stream size : 45.8 MiB (3%)
Default : Yes
Alternate group : 1

 

 

 

 

Watch Bar Wrestling 22 2018 11 01 720p WEB NCMP

 

 

 

 

Watch online

 

 

Waiting finish converting video

 

 

Server 1

 

 

 

 

 

 

 

 

 

 

 

 

 

 

 

Server 2

 

 

 

 

 

 

 


 

 

 

 

 

 

Uploaded By Site DX-TV.com

 

 

 

open rar file to see this password

 

 

 

 

The password : DX-TV.com

 

 

 

 

Uploaded.net + rapidgator.net

 

 

 

 

 

 
http://shrt10.com/AwuofmO

 

 

http://shrt10.com/hnAMGHq
 

 

 

 

 

 

Watch Bar Wrestling 22 2018 11 01 720p WEB NCMP

Leave a Reply

This site uses Akismet to reduce spam. Learn how your comment data is processed.