Watch Bar Wrestling 17 2018 08 23 720p WEB NCMP

Watch Bar Wrestling 17 2018 08 23 720p WEB NCMP

 

 

 

 


 

 

 

dx-tv.com

 

 

 

 

 

 

Complete name : Bar.Wrestling.17.2018.08.23.720p.WEB.h264-NCMP.mp4
Format : MPEG-4
Format profile : Base Media
File size : 1.83 GiB
Duration : 1 h 38 min
Overall bit rate mode : Variable
Overall bit rate : 2 665 kb/s
Writing application : Lavf55.12.100

Video
ID : 2
Format : AVC
Format/Info : Advanced Video Codec
Codec ID/Info : Advanced Video Coding
Duration : 1 h 38 min
Bit rate : 2 589 kb/s
Width : 1 280 pixels
Height : 720 pixels
Display aspect ratio : 16:9
Frame rate mode : Constant
Frame rate : 29.970
Color space : YUV
Chroma subsampling : 4:2:0
Bit depth : 8 bits
Scan type : Progressive
Bits/(Pixel*Frame) : 0.094
Stream size : 1.78 GiB (97%)

Audio
ID : 1
Format : AAC
Format/Info : Advanced Audio Codec
Format profile : LC
Codec ID : mp4a-40-2
Duration : 1 h 38 min
Bit rate mode : Variable
Bit rate : 69.0 kb/s
Maximum bit rate : 74.6 kb/s
Channel(s) : 2 channels
Channel positions : Front: L R
Sampling rate : 48.0 kHz
Frame rate : 46.875 FPS
Compression mode : Lossy
Stream size : 48.6 MiB (3%)
Default : Yes
Alternate group : 1

 

 

 

 

 

 

Watch Bar Wrestling 17 2018 08 23 720p WEB NCMP

 

 

 

 

Watch online

 

 

Waiting finish converting video

 

 

Server 1

 

 

 

 

 

 

 

 

 

 

 

 

 

 

 

Server 2

 

 

 

 

 

 


 

 

 

 

 

 

Uploaded By Site DX-TV.com

 

 

 

open rar file to see this password

 

 

 

 

The password : DX-TV.com

 

 

 

 

 

 

Uploaded.net + rapidgator.net

 

 

 

 

 

http://shrt10.com/bmeLFpg

 

 

 

 

 
http://shrt10.com/nLnWEP2
 

 

 

 

 

 

 

Watch Bar Wrestling 17 2018 08 23 720p WEB NCMP

Leave a Reply

This site uses Akismet to reduce spam. Learn how your comment data is processed.

Support HVIPS

Please Disable Ad-Block To View This site. just help us to continue this work