Watch Bar Wrestling 10 March of the Pigs 2018 03 08

Watch Bar Wrestling 10 March of the Pigs 2018 03 08

 

 

 

s

 

 

 

wwe

 

 

 

 

 

Complete name : Bar Wrestling 10 – March of the Pigs (2018.03.08) (480p).mp4
Format : MPEG-4
Format profile : Base Media
Codec ID : isom
File size : 1.33 GiB
Duration : 2h 1mn
Overall bit rate : 1 572 Kbps 

Video
ID : 2
Codec ID : avc1
Duration : 2h 1mn
Bit rate mode : Variable
Bit rate : 1 494 Kbps
Width : 854 pixels
Height : 480 pixels
Display aspect ratio : 16:9
Frame rate mode : Constant
Frame rate : 29.970 fps
Color space : YUV
Chroma subsampling : 4:2:0
Bit depth : 8 bits
Scan type : Progressive
Bits/(Pixel*Frame) : 0.122
Stream size : 1.26 GiB (95%)

Audio
ID : 1
Format : AAC
Format/Info : Advanced Audio Codec
Format profile : LC
Codec ID : 40
Duration : 2h 1mn
Bit rate mode : Variable
Bit rate : 68.9 Kbps
Maximum bit rate : 85.4 Kbps
Channel(s) : 2 channels
Channel positions : Front: L R
Sampling rate : 44.1 KHz
Compression mode : Lossy
Stream size : 59.7 MiB (4%)

 

 

 

 

 

 

 
Complete name : Bar Wrestling 10 – March of the Pigs (2018.03.08) (480p).mp4
Format : MPEG-4
Format profile : Base Media
Codec ID : isom
File size : 1.33 GiB
Duration : 2h 1mn
Overall bit rate : 1 572 Kbps
Writing application : Lavf55.12.100

Video
ID : 2
Format : AVC
Format/Info : Advanced Video Codec
Codec ID : avc1
Codec ID/Info : Advanced Video Coding
Duration : 2h 1mn
Bit rate mode : Variable
Bit rate : 1 494 Kbps
Width : 854 pixels
Height : 480 pixels
Display aspect ratio : 16:9
Frame rate mode : Constant
Frame rate : 29.970 fps
Color space : YUV
Chroma subsampling : 4:2:0
Bit depth : 8 bits
Scan type : Progressive
Bits/(Pixel*Frame) : 0.122
Stream size : 1.26 GiB (95%)

Audio
ID : 1
Format : AAC
Format/Info : Advanced Audio Codec
Format profile : LC
Codec ID : 40
Duration : 2h 1mn
Bit rate mode : Variable
Bit rate : 68.9 Kbps
Maximum bit rate : 85.4 Kbps
Channel(s) : 2 channels
Channel positions : Front: L R
Sampling rate : 44.1 KHz
Compression mode : Lossy
Stream size : 59.7 MiB (4%)

 

 

 

 

 

 

 

Watch Bar Wrestling 10 March of the Pigs 2018 03 08

 

 

 

 

Watch online

 

 

Waiting finish converting video

 

 

Server 1

 

 

 

 

 

 

 

 

 

 

 

 

 

 

 

Server 2

 

 

 

 

 

 

 

 


 

 

 

 

 

Uploaded By Site DX-TV.com

 

 

 

open rar file to see this password

 

 

 

 

The password is : DX-TV.com

 

 

 

 

400p+720p

 

 

 

 

 

Uploaded.net + rapidgator.net

 

 

 

 

 

http://shrt10.com/Iu6SV

 

 

http://shrt10.com/7cnzLG

 

 

http://shrt10.com/gUUOFF

 

 

http://shrt10.com/SNfNme3

 

 

 

 

 

 

 

 

Watch Bar Wrestling 10 March of the Pigs 2018 03 08

Leave a Reply

Your email address will not be published. Required fields are marked *

one × 1 =