Watch BAMMA 32 2017 11 10 720p WEB / Prelims

Watch BAMMA 32 2017 11 10 720p WEB / Prelims

 

 

 

 

 

 

wwe

 

 

 

 

Complete name : BAMMA.32.720p.WEB.DL.x264-ThS.mp4
Format : MPEG-4
Format profile : Base Media / Version 2
Codec ID : mp42
File size : 2.18 GiB
Duration : 2h 0mn
Overall bit rate : 2 605 Kbps

Video
ID : 1
Format : AVC
Format/Info : Advanced Video Codec
Format settings, ReFrames : 4 frames
Codec ID : avc1
Codec ID/Info : Advanced Video Coding
Duration : 2h 0mn
Bit rate mode : Variable
Bit rate : 2 485 Kbps
Maximum bit rate : 2 750 Kbps
Width : 1 290 pixels
Height : 720 pixels
Display aspect ratio : 16:9
Frame rate mode : Variable
Frame rate : 24.940 fps
Original frame rate : 25.000 fps
Minimum frame rate : 1.190 fps
Maximum frame rate : 50.000 fps
Standard : PAL
Color space : YUV
Chroma subsampling : 4:2:0
Bit depth : 8 bits
Scan type : Progressive
Bits/(Pixel*Frame) : 0.107
Stream size : 2.08 GiB (95%)
Encoded date : UTC 2017-11-19 00:52:02
Tagged date : UTC 2017-11-19 00:53:39

Audio
ID : 2
Format : AAC
Format/Info : Advanced Audio Codec
Format profile : LC
Codec ID : 40
Duration : 2h 0mn
Bit rate mode : Variable
Bit rate : 116 Kbps
Channel(s) : 2 channels
Channel positions : Front: L R
Sampling rate : 48.0 KHz
Compression mode : Lossy
Stream size : 99.4 MiB (4%)
Encoded date : UTC 2017-11-19 00:52:02
Tagged date : UTC 2017-11-19 00:53:39

 

 

 

 

 

 

 

 

 

 

 

 

Watch BAMMA 32 2017 11 10 720p WEB / Prelims

 

 

 

 

Watch online

 

 

Waiting finish converting video

 

 

Server 1

 

 

 

 

 

 

 

 

 

 

 

 

 

 

 

 

 

 

 

Server 2

 

 

 

 

 

 


 

 


 

 

 

 

Srver 3

 

 

 

 

 

 

 

 


 

 

 


 

 

 

 

 

Uploaded By Site DX-TV.com

 

 

 

open rar file to see this password

 

 

 

 

The password is : DX-TV.com

 

 

 

 

720p

 

 

 

Uploaded.net

 

 

 

 

 

 

 

http://shrt10.com/kQoS2

 

 

 

 

 

 

 

 

rapidgator.net

 

 

 

 

 

 

 

 

 

http://shrt10.com/RWOxh

 

 

 

 

 

Watch BAMMA 32 2017 11 10 720p WEB / Prelims

WE need Staff/ Uploader/ Capper best quality For DX-TV
For More INFO Send PM for Admin on Email : [email protected]

X