Watch All In 2018 HDTV NWCHD mp4

Watch All In 2018 HDTV NWCHD mp4

 

 

 

 


 

 

dx-tv.com

 

 

 

 

 

 

 

Complete name : All.In.2018.HDTV.x264-NWCHD.mp4
Format : MPEG-4
File size : 2.67 GiB
Duration : 3 h 57 min
Overall bit rate mode : Variable
Overall bit rate : 1 605 kb/s
Encoded date : UTC 2018-09-02 11:05:12
Tagged date : UTC 2018-09-02 11:05:12

Video
ID : 1
Format : AVC
Format/Info : Advanced Video Codec
Codec ID/Info : Advanced Video Coding
Duration : 3 h 57 min
Bit rate : 1 400 kb/s
Width : 704 pixels
Height : 400 pixels
Display aspect ratio : 16:9
Frame rate mode : Constant
Frame rate : 29.970
Color space : YUV
Chroma subsampling : 4:2:0
Bit depth : 8 bits
Scan type : Progressive
Bits/(Pixel*Frame) : 0.166
Stream size : 2.33 GiB (88%)
Encoded date : UTC 2018-09-02 11:05:12
Tagged date : UTC 2018-09-02 11:05:12
Color range : Limited
Color primaries : BT.709
Transfer characteristics : BT.709
Matrix coefficients : BT.709

Audio
ID : 2
Format : AAC
Format/Info : Advanced Audio Codec
Format profile : LC
Codec ID : mp4a-40-2
Duration : 3 h 57 min
Bit rate mode : Variable
Bit rate : 192 kb/s
Channel(s) : 2 channels
Channel positions : Front: L R
Sampling rate : 48.0 kHz
Frame rate : 46.875 FPS
Compression mode : Lossy
Stream size : 327 MiB (12%)
Title : Stereo / Stereo
Default : Yes
Alternate group : 1
Encoded date : UTC 2018-09-02 11:05:12
Tagged date : UTC 2018-09-02 11:05:12

 

 

 

 

 

 

 

Watch All In 2018 HDTV NWCHD mp4

 

 

 

 

Watch online

 

 

Waiting finish converting video

 

 

Server 1

 

 

 

 

 

 

 

 

 

 

 

 

 

 

 

 

 

Server 2

 

 

 

 

 

 

 

 

 

 

 

 

Uploaded By Site DX-TV.com

 

 

 

open rar file to see this password

 

 

 

 

The password : DX-TV.com

 

 

 

 

Uploaded.net + rapidgator.net

 

 

 

 

 

http://shrt10.com/3WC2

 

 

 

 

 

http://shrt10.com/JaaFM

 

 

 

 

 

 

 

 

Watch All In 2018 HDTV NWCHD mp4