Watch All Elite Wrestling Dynamite 2019 10 09 720p

Watch All Elite Wrestling Dynamite 2019 10 09 720p KYR DX-TV

 

 

wwe raw

 

 

 

 

dx-tv.com

 

 

 

 

Watch All Elite Wrestling Dynamite 2019 10 09 720p

 

 

 

 

 

Complete name : All.Elite.Wrestling.Dynamite.2019.10.09.720p.HDTV.x264-KYR.mkv
Format : Matroska
Format version : Version 4
File size : 2.67 GiB
Duration : 1 h 34 min
Overall bit rate : 4 063 kb/s

Video
ID : 1
Format : AVC
Format settings, : 5 frames
Codec ID : V_MPEG4/ISO/AVC
Duration : 1 h 34 min
Bit rate : 3 611 kb/s
Width : 1 280 pixels
Height : 720 pixels
Display aspect ratio : 16:9
Frame rate mode : Constant
Frame rate : 59.940 (60000/1001) FPS
Color space : YUV
Chroma subsampling : 4:2:0
Bit depth : 8 bits
Scan type : Progressive
Bits/(Pixel*Frame) : 0.065
Stream size : 2.37 GiB (89%)

Audio
ID : 2
Format : AC-3
Commercial name : Dolby Digital
Codec ID : A_AC3
Duration : 1 h 34 min
Bit rate mode : Constant
Bit rate : 448 kb/s
Channel(s) : 6 channels
Channel layout : L R C LFE Ls Rs
Sampling rate : 48.0 kHz
Frame rate : 31.250 FPS (1536 SPF)
Compression mode : Lossy
Stream size : 301 MiB (11%)
Service kind : Complete Main

 

 

 

 

 

 

Watch online

 

 

Waiting finish converting video

 

 

Server 1

 

 

 

 

 

 

 

 

 

 

 

 

 

 

Server 2

 

 

 

 

 

 

 

 

 

 

 

 

 

 

 

Uploaded By Site DX-TV.com

 

 

 

 

 

Watch All Elite Wrestling Dynamite 2019 10 09 720p

 

 

 

 

 

 

Recommended For Free

 

 

 

4downfiles.org

 

 

earn4files.com

 

 

 

fileup.cc

 

 

 

uptobox.com

 

 

 

 

Download with high speed with Premium account

 

 

 

 

nitroflare.com

 

 

 

rapidgator.net

 

 

 

uploaded.net

 

 

 

uploadgig.com

 

 

 

 

 

 

Leave a Reply

Your email address will not be published. Required fields are marked *

3 × 4 =

WhatsApp chat