Watch AJPW New Year Wars Day 2 2021 01 03 DX-TV

Watch AJPW New Year Wars Day 2 2021 01 03 DX-TV

Watch AJPW New Year Wars

 Watch AJPW New Year Wars

 

Download Links with premium High Speed   

 

 

nitroflare.com

http://shrt10.com/rDP8FXwRA

 

 

rapidgator.net

http://shrt10.com/v6SjJJF9e

 

 

uploaded.net

http://shrt10.com/102FRTu

 

 

uploadgig.com

http://shrt10.com/IVZahXyJc

 

Watch online

 

Server 1

 

 

 

 

Watch AJPW New Year Wars

 

 

 

 

Server-2

 

 

 

 

watch now

 

 

Uploaded By Site DX-TV.com

 

 

Complete name : 2021.01.03.AJPW.New,Year.Wars.2021.Day.2.mp4
Format : MPEG-4
Format profile : Base Media
Codec ID : isom
File size : 2.31 GiB
Duration : 2 h 42 min
Overall bit rate : 2 038 kb/s
Writing application : Lavf58.64.100

Watch AJPW New Year Wars

Video
ID : 1
Format : AVC
Format/Info : Advanced Video
Duration : 2 h 42 min
Bit rate : 1 934 kb/s
Width : 1 280 pixels
Height : 720 pixels
Display aspect ratio : 16:9
Frame rate mode : Variable
Frame rate : 29.970 (29970/1000) FPS
Minimum frame rate : 0.814 FPS 
Color space : YUV
Chroma subsampling : 4:2:0
Bit depth : 8 bits
Scan type : Progressive
Bits/(Pixel*Frame) : 0.070
Stream size : 2.19 GiB (95%)
Color range : Full
Color primaries : BT.709
Transfer characteristics : BT.709
Matrix coefficients : BT.709
Codec configuration box : avc

Watch AJPW New Year  

Audio
ID : 2
Format : AAC LC
Format/Info : Advanced Audio
Codec ID : mp4a-40-2
Duration : 2 h 42 min
Bit rate mode : Constant
Bit rate : 96.0 kb/s
Channel(s) : 2 channels
Channel layout : L R
Sampling rate : 48.0 kHz
Frame rate : 46.875 FPS (1024 SPF)
Compression mode : Lossy
Stream size : 111 MiB (5%)
Default : Yes
Alternate group : 1

 AJPW New Year Wars

Audio
ID : 2
Format : AAC LC
Format/Info : Advanced Audio
Codec ID : mp4a-40-2
Duration : 2 h 42 min
Bit rate mode : Constant
Bit rate : 96.0 kb/s
Channel(s) : 2 channels
Channel layout : L R
Sampling rate : 48.0 kHz
Frame rate : 46.875 FPS (1024 SPF)
Compression mode : Lossy
Stream size : 111 MiB (5%)
Default : Yes
Alternate group : 1

 

 

https://dx-tv.com/

Leave a Reply

Your email address will not be published. Required fields are marked *

This site uses Akismet to reduce spam. Learn how your comment data is processed.