Watch AJPW Dream Power Series 2020 03 23 Tokyo

AJPW Dream Power Series 2020 03 23 Tokyo DX-TV

Watch

 

 AJPW

 

 

Watch AJPW Dream Power Series 2020 03 23 Tokyo

 

Complete name : 2020.03.23.AJPW.Dream.Power.Series.2020.Tokyo.Korakuen.Hall.(Samurai.TV).mp4
Format : MPEG-4
Format profile : Base Media
Codec ID :Watch
File size : 2.31 GiB
Duration : 1 h 54 min
Overall bit rate : 2 891 kb/s
 application : Lavf58.29.100

Video
ID : 1
Format : AVC
Format/Info : Advanced 
Codec ID : avc1
Codec ID/Info : Watch 
Duration : 1 h 54 min
Bit rate : 2 686 kb/s
Width : 1 280 pixels
Height : 720 pixels
Display aspect ratio : 16:9
Frame rate mode : Constant
Frame rate : 60.000 FPS
Color space : Watch
Chroma  : 4:2:0
Bit depth : 8 bits
Scan type : Watch
Bits/(Pixel*Frame) : 0.049
Stream size : 2.14 GiB (93%)

Audio
ID : 2
Format : AAC LC
Format/Info : Watch
Codec ID : mp4a-40-2
Duration : 1 h 54 min
Bit rate mode : Watch
Bit rate : 192 kb/s
Channel(s) : 2 channels
Channel layout : L R
Sampling rate : 44.1 kHz
Frame rate : 43.066 FPS (1024 SPF)
Compression mode : Watch
Stream size : 157 MiB (7%)
Title : simple_aac_recording
Default : Yes
Alternate group : Watch

 

 

 

Watch online

 

 

Server 1

 

 

 

 

watch now

 

 

 

 

Server 2

 

 

 

watch now

 

 

 

Watch AJPW Dream Power Series 2020 03 23 Tokyo

 

 

Uploaded By Site DX-TV.com

 

 

Download with Free Links 

 

 

1fichier.com

 

 

 

 

Download with premium account Links 

 

 

Keep2Share

 

 

nitroflare.com

 

 

rapidgator.net

 

 

uploadgig.com

 

 

 

dx-tv.com

 

urlfree.net

 136 total views,  2 views today

Leave a Reply

Your email address will not be published. Required fields are marked *

This site uses Akismet to reduce spam. Learn how your comment data is processed.

%d bloggers like this: