Watch AJPW Champion Carnival 2019 04 24 Day 15 full show free mp4

 

 

 

 


 

 

dx-tv.com

 

 

 

 

Complete name : 2019.04.24 – Champion Carnival Day 15.mp4
Format : MPEG-4
Format profile : Base Media
Codec ID : isom (isom/iso2/avc1/mp41)
File size : 1.69 GiB
Duration : 2 h 0 min
Overall bit rate mode : Variable
Overall bit rate : 2 007 kb/s
Writing application : Lavf58.20.100

Video
ID : 1
Format : AVC
Format/Info : Advanced Video Codec
Format settings, Reference : 3 frames
Format settings, GOP : M=1, N=30
Codec ID : avc1
Codec ID/Info : Advanced Video Coding
Duration : 2 h 0 min
Bit rate : 1 904 kb/s
Width : 1 280 pixels
Height : 720 pixels
Display aspect ratio : 16:9
Frame rate mode : Constant
Frame rate : 30.000 FPS
Color space : YUV
Chroma subsampling : 4:2:0
Bit depth : 8 bits
Scan type : Progressive
Bits/(Pixel*Frame) : 0.069
Stream size : 1.60 GiB (95%)

Audio
ID : 2
Format : AAC LC
Format/Info : Advanced Audio Codec Low Complexity
Codec ID : mp4a-40-2
Duration : 2 h 0 min
Bit rate mode : Variable
Bit rate : 94.0 kb/s
Maximum bit rate : 102 kb/s
Channel(s) : 2 channels
Channel layout : L R
Sampling rate : 44.1 kHz
Frame rate : 43.066 FPS (1024 SPF)
Compression mode : Lossy
Stream size : 80.9 MiB (5%)
Language : English
Default : Yes
Alternate group : 1

 

 

 

 

 

Watch AJPW Champion Carnival 2019 04 24 Day 15 full show free mp4

 

 

 

 

Watch online

 

 

Waiting finish converting video

 

 

Server 1

 

 

 

 

 



Uploaded By Site DX-TV.com

 

 

 

open rar file to see this password

 

 

 

 

The password : DX-TV.com

 

 

 

 

Uploaded.net + rapidgator.net + DDL.to + katfile.com

 

 

 

 


 
https://shrt10.com/sc2v
 

 
https://shrt10.com/zwESgvJo
 

 
https://shrt10.com/bfnmEJ
 

 
https://shrt10.com/LUNA

 

 

 

 

 

 

Watch AJPW Champion Carnival 2019 04 24 Day 15 full show free mp4