Watch AJPW All Japan TV Relay 2020 04 30

AJPW Relay 2020 04 30 720p DX-TV

Watch

 AJPW

 

 

Watch AJPW Relay 2020 04 30 720p

 

 

Complete name : 2020.04.30.AJPW.All.Japan.TV.Relay.2020.(Samurai.TV).mp4
Format : MPEG-4
Format profile : Watch
Codec ID : isom
File size : 2.61 GiB
Duration : 2 h 16 min
Overall bit rate : 2 726 kb/s
Writing application : Watch

Video
ID : 1
Format : AVC
Codec ID : avc1
Codec ID/Info : Watch
Duration : 2 h 16 min
Bit rate : 2 521 kb/s
Width : 1 280 pixels
Height : 720 pixels
Display aspect ratio : 16:9
rate mode : Watch
Frame rate : 60.000 FPS
Color space : YUV
Chroma subsampling : 4:2:0
Bit depth : 8 bits
Scan type : Progressive
Bits/(Pixel*Frame) : 0.046
Stream size : 2.41 GiB (92%)
Audio
ID : 2
Format : AAC LC
Format/Info : Watch
Codec ID : mp4a-40-2
Duration : 2 h 16 min
Bit rate mode : Constant
Bit rate : 192 kb/s
Channel(s) : 2 channels
Channel layout : L R
Sampling rate : 44.1 kHz
Frame rate : Watch
Compression mode : Lossy
Stream size : 188 MiB (7%)
Title : Watch
Default : Yes
Alternate group : 1

 

 

 

Watch online

 

 

Server 1

 

 

 

 

watch now

 

 

 

 

Server 2

 

 

 

watch now

 

 

Watch AJPW Relay 2020 04 30 720p

 

 

Uploaded By Site DX-TV.com

 

 

Download with Free Links 

 

 

1fichier.com

 

 

 

Download with premium account Links 

 

 

Keep2Share

 

 

nitroflare.com

 

 

rapidgator.net

 

 

uploadgig.com

 

 

 

dx-tv.com

 

urlfree.net

Leave a Reply

Your email address will not be published. Required fields are marked *

This site uses Akismet to reduce spam. Learn how your comment data is processed.

%d bloggers like this: