Watch AJPW 2019 04 29 Champion Carnival Day 18 Final full show free mp4

 

 

 

 


 

 

 

dx-tv.com

 

 

 

 

 

Complete name : 2019.04.29 – Champion Carnival Day 18 Final.mp4
Format : MPEG-4
Format profile : Base Media
Codec ID : isom (isom/iso2/avc1/mp41)
File size : 1.94 GiB
Duration : 2 h 30 min
Overall bit rate : 1 854 kb/s
Writing application : Lavf58.20.100

Video
ID : 1
Format : AVC
Format/Info : Advanced Video Codec
Format settings, Reference : 1 frame
Format settings, GOP : M=1, N=60
Codec ID : avc1
Codec ID/Info : Advanced Video Coding
Duration : 2 h 30 min
Bit rate : 1 749 kb/s
Width : 1 280 pixels
Height : 720 pixels
Display aspect ratio : 16:9
Frame rate : 29.970 (29970/1000) FPS
Color space : YUV
Chroma subsampling : 4:2:0
Bit depth : 8 bits
Scan type : Progressive
Bits/(Pixel*Frame) : 0.063
Stream size : 1.83 GiB (94%)
Color range : Full
Color primaries : BT.709
Transfer characteristics : BT.709
Matrix coefficients : BT.709
Codec configuration box : avcC

Audio
ID : 2
Format : AAC LC
Format/Info : Advanced Audio
Codec ID : mp4a-40-2
Duration : 2 h 30 min
Bit rate mode : Constant
Bit rate : 96.0 kb/s
Channel(s) : 2 channels
Channel layout : L R
Sampling rate : 48.0 kHz
Frame rate : 46.875 FPS (1024 SPF)
Compression mode : Lossy
Stream size : 103 MiB (5%)
Language : English
Default : Yes
Alternate group : 1

 

 

 

 

 


 

 

 

Watch AJPW 2019 04 29 Champion Carnival Day 18 Final full show free mp4

 

 

 

 

Watch online

 

 

Waiting finish converting video

 

 

Server 1

 

 

 

 

 


 

 

 


 

 


 

 

 

Uploaded By Site DX-TV.com

 

 

 

open rar file to see this password

 

 

 

 

The password : DX-TV.com

 

 

 

 

Uploaded.net + rapidgator.net + DDL.to + katfile.com

 

 

 

 


 

 

https://shrt10.com/5AiQ

 

 
https://shrt10.com/WPtVgR

 

 
https://shrt10.com/WKuhhx

 

 
https://shrt10.com/7jb9WLK
 

 

 

 

 

 

Watch AJPW 2019 04 29 Champion Carnival Day 18 Final full show free mp4