Watch AEW Dynamite Online 2021 10 06 Full Show Replay

Watch AEW Dynamite Online 2021 10 06 1080p Full Show Replay DX-TV

Watch AEW Dynamite Online

 Watch AEW Dynamite Online

 

 

 

Download Links with premium High Speed
 

 


 

Dopapk

 

 

Show Links

 

 

http://shrt10.com/UVEVAKiT
http://shrt10.com/Wp99jfC

 

 

 

 

 

Nitroflare

 

 

Show Links

 

 

http://shrt10.com/vnEHBv
http://shrt10.com/D9k2WLtMs
http://shrt10.com/XKBE6wKrl

 

 

 

 

Rapidgator

 

 

Show Links

 

 

http://shrt10.com/kayWdgd
http://shrt10.com/zmXK5G
http://shrt10.com/MVKXgJd

 

 

 

 

 

Uploaded
 

 

 

Show Links

 

 

http://shrt10.com/rIzDI
http://shrt10.com/eM3UyLLIA

 

 

 

 

 

 

 

Watch aew online

 

Server 1

 

 

 

 

watch now

 

 

 

 

Server-2

 

 

 

 

watch now

 

 

 

|Server-3

 

 

 

 

Watch AEW Dynamite Online

 

 

Uploaded By Site DX-TV.com

 

 

Open Info Show

 

 

Complete name : AEW.Dynamite.2021.10.06.HDTV.x264-NWCHD.mp4
Format : MPEG-4
Format profile : Base Media
Codec ID : isp41)
File size : 1.15 GiB
Duration : 1 h 43 min
Overall bit rate : 1 582 kb/s

Watch AEW Dynamite Online

Video
ID : 1
Format : AVC
Duration : 1 h 43 min
Bit rate : 1 388 kb/s
Width : 704 pixels
Height : 400 pixels
Display aspect ratio : 16:9
Frame rate mode : Variable
Frame rate : 29.970 (30000/1001) FPS
Minimum frame rate : 29.412 FPS
Maximum frame rate : 29.970 FPS
Color space : YUV
Chroma subsampling : 4:2:0
Bit depth : 8 bits
Scan type : Progressive
Bits/(Pixel*Frame) : 0.165
Stream size : 1.00 GiB (87%)
Color primaries : BT.709
Transfer characteristics : BT.709
Matrix coefficients : BT.709
Codec configuration box : avcC

Audio
ID : 2
Format : AAC LC
Format/Info : Advanced
Codec ID : mp4a-40-2
Duration : 1 h 43 min
Bit rate mode : Constant
Bit rate : 192 kb/s
Channel(s) : 2 channels
Channel layout : L R
Sampling rate : 48.0 kHz
Frame rate : 46.875 FPS (1024 SPF)
Compression mode : Lossy
Stream size : 143 MiB (12%)
Title : Stereo
Language : English
Default : Yes
Alternate group : 1

Complete name : AEW.Dynamite.2021.10.06.1080p.HDTV.x264-NWCHD.mp4
Format : MPEG-4
Format profile : Base Media
Codec ID : i1/mp41)
File size : 5.93 GiB
Duration : 1 h 43 min
Overall bit rate : 8 161 kb/s

Video
ID : 1
Format : AVC
Duration : 1 h 43 min
Bit rate : 8 020 kb/s
Width : 1 920 pixels
Height : 1 080 pixels
Display aspect ratio : 16:9
Frame rate mode : Variable
Frame rate : 29.970 (30000/1001) FPS
Minimum frame rate : 29.412 FPS
Maximum frame rate : 29.970 FPS
Color space : YUV
Chroma subsampling : 4:2:0
Bit depth : 8 bits
Scan type : Progressive
Bits/(Pixel*Frame) : 0.129
Stream size : 5.78 GiB (98%)
Color primaries : BT.709
Transfer characteristics : BT.709
Matrix coefficients : BT.709
Codec configuration box : avcC

Watch AEW Dynamite Online

Audio
ID : 2
Format : AAC LC
Format/Info : Advanced
Codec ID : mp4a-40-2
Duration : 1 h 43 min
Bit rate mode : Constant
Bit rate : 192 kb/s
Channel(s) : 2 channels
Channel layout : L R
Sampling rate : 48.0 kHz
Frame rate : 46.875 FPS (1024 SPF)
Compression mode : Lossy
Stream size : 143 MiB (2%)
Title : Stereo
Language : English
Default : Yes
Alternate group : 1

Watch AEW Dynamite  

Complete name : AEW.Dynamite.2021.10.06.720p.HDTV.x264-NWCHD.mp4
Format : MPEG-4
Format profile : Base Media
Codec ID : ivc1/mp41)
File size : 3.39 GiB
Duration : 1 h 43 min
Overall bit rate : 4 667 kb/s

Video
ID : 1
Format : AVC
Duration : 1 h 43 min
Bit rate : 4 497 kb/s
Width : 1 280 pixels
Height : 720 pixels
Display aspect ratio : 16:9
Frame rate mode : Variable
Frame rate : 29.970 (30000/1001) FPS
Minimum frame rate : 29.412 FPS
Maximum frame rate : 29.970 FPS
Color space : YUV
Chroma subsampling : 4:2:0
Bit depth : 8 bits
Scan type : Progressive
Bits/(Pixel*Frame) : 0.163
Stream size : 3.24 GiB (96%)
Color primaries : BT.709
Transfer characteristics : BT.709
Matrix coefficients : BT.709
Codec configuration box : avcC

Watch AEW Dynamite Online

Audio
ID : 2
Format : AAC LC
Format/Info : Advanced Audio
Codec ID : mp4a-40-2
Duration : 1 h 43 min
Bit rate mode : Constant
Bit rate : 192 kb/s
Channel(s) : 2 channels
Channel layout : L R
Sampling rate : 48.0 kHz
Frame rate : 46.875 FPS (1024 SPF)
Compression mode : Lossy
Stream size : 143 MiB (4%)
Title : Stereo
Language : English
Default : Yes
Alternate group : 1

 

 

https://dx-tv.com/

 

 

 

 

 

You May Also Like

Leave a Reply

Your email address will not be published. Required fields are marked *

This site uses Akismet to reduce spam. Learn how your comment data is processed.