Watch AEW Dynamite 2020 09 30 Full Show

Watch AEW Dynamite 2020 09 30 HDTV NWCHD DX-TV

 

AEW Dynamite

 

 AEW Dynamite
 


 

 

Watch AEW Dynamite 2020 09 30 Full Show

 

 

One week ago, in a match set-up mere hours before DYNAMITE went on the air, “The Mad King” Eddie Kingston was granted an AEW World Title Match against Jon Moxley. The title opportunity came after several weeks of hearing Kingston accurately point out that he was not technically eliminated from the Casino Battle Royale at ALL OUT 2020 by the man who was declared the victor, Lance Archer. And while Archer is still set to receive a championship match on October 14th at the DYNAMITE ANNIVERSARY event, it became a question of just who he would be fighting that Wednesday night.

AEW Dynamite

When the final bell rang, after Referee Bryce Remsburg called for the stoppage via Bulldog Choke, it was Jon Moxley still able to refer to himself as champ, and a bewildered Kingston left confused as to what happened once he regained his wits. What Eddie witnessed as he came to though was indeed a tremendous sight if you were in his shoes, Penta El Zero M and Rey Fenix laying waste to the worn out World Champion, and even the appearance of Will Hobbs wasn’t enough to save Mox. Darby Allin even attempted a rescue, but that was for naught when Ricky Starks crashed the party as well.

AEW Dynamite

In the end, it was a scene of total carnage as Kingston, Penta, Fenix, and Starks, with Taz at their side, stood over the battered bodies of Mox, Allin,

and Hobbs. Doesn’t take a crystal ball to predict the obvious point that Moxley wants some righteous vengeance.

And he will get it come Wednesday night, after a fashion, as “The Mad King” himself has been given .

a chance to select the World Champion’s opponent for the evening, and the AEW World Title will be on the line!

AEW Dynamite

Complete name : AEW.Dynamite.2020.09.30.HDTV.x264-NWCHD.mp4
Format : MPEG-4
Format profile : Base Media
Codec ID : isom
File size : 1.17 GiB
Duration : 1 h 44 min
Overall bit rate : 1 589 kb/s
Writing application : Lavf58. 

AEW Dynamite

Video
ID : 1
Format : AVC
Duration : 1 h 44 min
Bit rate : 1 400 kb/s
Width : 704 pixels
Height : 400 pixels
Display ratio : 16:9
display aspect rat : 16:9
Frame rate mode : Variable
 rate : 29.970 (30000/1001) FPS 
Color space : YUV
Chroma subsampling : 4:2:0
Bit depth : 8 bits
Scan type : Progressive
Bits/(Pixel*Frame) : 0.166
Stream size : 1.02 GiB (87%)
Color primaries : BT.709
Transfer characteristics : BT.709
Matrix coefficients : BT.709
Codec configuration box : avcC

AEW Dynamite

Audio
ID : 2
Format : AAC LC
Format/Info : Advanced Audio
Codec ID : mp4a-40-2
Duration : 1 h 44 min
Bit rate mode : Constant
Bit rate : 192 kb/s
Channel(s) : 2 channels
Channel layout : L R
Sampling rate : 48.0 kHz
Frame rate : 46.875 FPS (1024 SPF)
Compression mode : Lossy
Stream size : 144 MiB (12%)
Title : Stereo
Language : English
Default : Yes
Alternate group : 1

 

 

 

Watch AEW Dynamite 2020 09 30 Full Show

 

 

 

 

Watch online

 

 

 

 

 

Server 1

 

 

 

 

watch now

 

 

 

 

Server-2

 

 

 

watch now

 

 

 

 

Server-3

 

 

 

AEW Dynamite

 

 

 

 

Uploaded By Site DX-TV.com

 

 

 

 

Download Free Links with normal and high Speed [ more 15 hosts ]  

 

 

 

 

http://shrt10.com/JIMwwf
http://shrt10.com/wI6vobfH
http://shrt10.com/3obwV1v
http://shrt10.com/NrTbqcNf
http://shrt10.com/mCwHV
http://shrt10.com/24GEdz56
http://shrt10.com/acLOJD3
http://shrt10.com/vsWjy
http://shrt10.com/jYoVCI
http://shrt10.com/wRDY8OH
http://shrt10.com/SkZrN
http://shrt10.com/T25tkplR
http://shrt10.com/omwgGgX

 

 

 

Download Links with premium High Speed   

 

 

 

 

 

nitroflare.com

 

 

 

rapidgator.net

 

 

 

uploaded.net

 

 

 

dx-tv.com

 

urlfree.net

Leave a Reply

Your email address will not be published. Required fields are marked *

This site uses Akismet to reduce spam. Learn how your comment data is processed.