Watch AEW Dynamite 2020 03 25 1080p

AEW Dynamite 2020 03 25 1080p HEEL DX-TV

AEW

 AEW

 

 

Watch AEW Dynamite 2020 03 25 1080p

 

 

Complete name : AEW.Dynamite.2020.03.25.1080p.WEB.h264-HEEL.mp4
Format : MPEG-4
Format profile : Base Media
Codec ID : isom AEW
File size : 3.61 GiB
Duration : 2 h 0 min
Overall bit rate : 4 299 kb/s
Writing application : AEW

Video
ID : 1
Format : AVC
Duration : 2 h 0 min
Source duration : 2 h 0 min
Bit rate : 4 032 kb/s
Width : 1 920 pixels
Height : 1 080 pixels
Display aspect ratio : 16:9
Frame rate mode : Variable
Frame rate : 29.970 (30000/1001) FPS
Minimum frame rate : 29.412 FPS
Maximum frame rate : 30.303 FPS
Color space : AEW
Chroma subsampling : 4:2:0
Bit depth : 8 bits
Scan type : AEW
Bits/(Pixel*Frame) : 0.065
Stream size : 3.39 GiB (94%)
Source stream size : 3.39 GiB (94%)
mdhd_Duration : AEW
Codec configuration box : avcC

Audio #1
ID : 2
Format : AAC LC
Format/Info : AEW
Codec ID : mp4a-40-2
Duration : 2 h 0 min
Bit rate mode : AEW
Bit rate : 127 kb/s
Channel(s) : 2 channels
Channel layout : L R
Sampling rate : 48.0 kHz
Frame rate : 46.875 FPS (1024 SPF)
Compression mode : Lossy
Stream size : 110 MiB (3%)
Language : English
Default : Yes
Alternate group : AEW

Audio #2
ID : 3
Format : AAC LC
Format/Info : Advanced Audio Codec Low Complexity
Codec ID : mp4a-40-2
Duration : 2 h 0 min
Bit rate mode : AEW
Bit rate : 128 kb/s
Channel(s) : 2 channels
Channel layout : L R
Sampling rate : 48.0 kHz
Frame rate : 46.875 FPS (1024 SPF)
Compression mode : Lossy
Stream size : 111 MiB (3%)
Language : Spanish
Default : No
Alternate group : AEW

 

 

 

Watch online

 

 

Server 1

 

 

 

 

watch now

 

 

 

 

Server 2

 

 

 

watch now

 

 

 

Watch AEW Dynamite 2020 03 25 1080p

 

 

Uploaded By Site DX-TV.com

 

 

Download with Free Links 

 

 

1fichier.com

https://shrt10.com/M3pYzDdLs
https://shrt10.com/JHXKjEn5h
https://shrt10.com/bA9RBkEv

 

DDL.to

https://shrt10.com/8iWC7U4b0
https://shrt10.com/EwHUHv7we
https://shrt10.com/EB83wDCu

 

rockfile.co

https://shrt10.com/5JGXI
https://shrt10.com/J6VZorq
https://shrt10.com/OmopBh1

 

 

Download with premium account Links 

 

 

Keep2Share

 

 

mixdrop.co

 

 

alfafile.net

 

 

nitroflare.com

 

 

rapidgator.net

 

 

uploadgig.com

 

 

 

dx-tv.com

 

urlfree.net

5 thoughts on “ Watch AEW Dynamite 2020 03 25 1080p

          1. I checked here and in fite run-time in fate tv is 2 hours and some seconds here is 94 minutes then before i coment here i also cheked the rest of the links for this week dynamate they all are 94 minutes maybe now you up the fite version if you did sorry

Leave a Reply

Your email address will not be published. Required fields are marked *

This site uses Akismet to reduce spam. Learn how your comment data is processed.

%d bloggers like this: